Vsetko zadarmo

Vsetko zadarmo
 
DomovFAQHľadaťRegistráciaZoznam užívateľovUžívateľské skupinyPrihlásenie

Share | 
 

 Záměna / Trading Places (1983)

Zobraziť predchádzajúcu tému Zobraziť nasledujúcu tému Goto down 
AutorSpráva
aismen
Mega Uploader
Mega Uploader


Počet príspevkov : 703
Registration date : 16.04.2008

OdoslaťPredmet: Záměna / Trading Places (1983)   Ne september 18, 2011 7:38 pm

Výmena
Trading Places
Záměna


Komedie
USA, 1983, 111 min

http://www.csfd.cz/film/5590-zamena/

Režie:John Landis
Hudba:Elmer Bernstein
Hrají:Dan Aykroyd, Eddie Murphy, Ralph Bellamy, Don Ameche, Denholm Elliott, Jamie Lee Curtis, Paul Gleason, Frank Oz, James Belushi, Robert Curtis-Brown, Nicholas Guest, John Bedford Lloyd, Giancarlo Esposito, James Eckhouse, Eddie Jones, Bill Cobbs, Philip Bosco, Bryan Clark, Tom Mardirosian, Gary Howard Klar

Mladý a úspěšný obchodník s komoditami Louis Winthorpe III a pouliční podvodníček Billy Ray Valentine si ze dne na den musejí vyměnit svá místa, která jim byla dávno určena v jejich životě. To je ale pouhý začátek důmyslných intrik, v jejichž pozadí stojí dva starší namyšlení boháči Randolph a Mortimer. Pro ně je to pouhý "vědecký experiment" v ceně jednoho dolaru. Zato mladý Louis Winthorpe III je zcela pokořen svým nečekaným společenským pádem dolů. Jeho nový zástupce si zase brzy nachází své místo ve světě bohatých. Každá hra má však nejen svá pravidla, ale také slabiny umožňující vzniklou situaci nějak využít...

INFO:
kód:
Format                          : AVI
Format/Info                      : Audio Video Interleave
File size                        : 720 MiB
Duration                        : 1h 51mn
Overall bit rate                : 902 Kbps
Writing application              : MEncoder Sherpya-SVN-r27811-4.2.5
Writing library                  : MPlayer

Video
ID                              : 0
Format                          : MPEG-4 Visual
Format profile                  : Simple@L3
Format settings, BVOP            : No
Format settings, QPel            : No
Format settings, GMC            : No warppoints
Format settings, Matrix          : Default (H.263)
Codec ID                        : XVID
Codec ID/Hint                    : XviD
Duration                        : 1h 51mn
Bit rate                        : 767 Kbps
Width                            : 320 pixels
Height                          : 240 pixels
Display aspect ratio            : 4:3
Frame rate                      : 25.000 fps
Color space                      : YUV
Chroma subsampling              : 4:2:0
Bit depth                        : 8 bits
Scan type                        : Progressive
Compression mode                : Lossy
Bits/(Pixel*Frame)              : 0.399
Stream size                      : 612 MiB (85%)
Writing library                  : XviD 1.1.2 (UTC 2006-11-01)

Audio
ID                              : 1
Format                          : MPEG Audio
Format version                  : Version 1
Format profile                  : Layer 3
Mode                            : Joint stereo
Mode extension                  : MS Stereo
Codec ID                        : 55
Codec ID/Hint                    : MP3
Duration                        : 1h 51mn
Bit rate mode                    : Variable
Bit rate                        : 123 Kbps
Channel(s)                      : 2 channels
Sampling rate                    : 44.1 KHz
Compression mode                : Lossy
Stream size                      : 98.0 MiB (14%)
Alignment                        : Aligned on interleaves
Interleave, duration            : 26 ms (0.65 video frame)
Interleave, preload duration    : 135 ms

DOWNLOAD:

hellshare

kód:
http://download.hellshare.sk/zamena-avi/3587404

upnito.sk

kód:
http://www.upnito.sk/subor/94055a8c969f7c9698dfb48d9f5084c8.html

quickshare.cz
kód:
http://www.quickshare.cz/stahnout-soubor/605288:zamena-avi_720MB

PASS:no
Návrat hore Goto down
Zobrazit informácie o autorovi http://warnerfilm.forumn.org
 
Záměna / Trading Places (1983)
Zobraziť predchádzajúcu tému Zobraziť nasledujúcu tému Návrat hore 
Strana 1 z 1

Povolenie tohoto fóra:Nemôžete odpovedať na témy v tomto fóre.
Vsetko zadarmo :: .::Download filmy::. :: .::Filmy s ceskym a slovenskym dabingom::.-
Prejdi na: