Vsetko zadarmo

Vsetko zadarmo
 
DomovFAQHľadaťRegistráciaZoznam užívateľovUžívateľské skupinyPrihlásenie

Share | 
 

 Zkouška z dospělosti / Graduation (2007)

Zobraziť predchádzajúcu tému Zobraziť nasledujúcu tému Goto down 
AutorSpráva
aismen
Mega Uploader
Mega Uploader


Počet príspevkov : 703
Registration date : 16.04.2008

OdoslaťPredmet: Zkouška z dospělosti / Graduation (2007)   Ne september 18, 2011 7:37 pm

Graduation
Zkouška z dospělosti


Akční / Dobrodružný / Komedie / Krimi
USA, 2007, 89 min

http://www.csfd.cz/film/242160-zkouska-z-dospelosti/

Režie:Michael Mayer
Hrají:Shannon Lucio, Riley Smith, Chris Marquette, Adam Arkin, Aimee Garcia, Huey Lewis, Lisa Ann Walter, Chris Lowell, Glynnis O'Connor


Parta amerických středoškoláků se rozhodne že vyloupí banku, aby získali 100 000 $ na operaci matky jednoho z nich. A taky se jim to podaří, přestože se při loupeži navzájem málem zabijí a překvapí je jejich kamarádka, která náhodou do banky zavítá…

INFO:

kód:
Format                          : AVI
Format/Info                      : Audio Video Interleave
File size                        : 708 MiB
Duration                        : 1h 20mn
Overall bit rate                : 1 228 Kbps
Writing application              : VirtualDubMod 1.5.10.2 (build 2542/release)
Writing library                  : VirtualDubMod build 2542/release

Video
ID                              : 0
Format                          : MPEG-4 Visual
Format profile                  : Advanced Simple@L5
Format settings, BVOP            : 1
Format settings, QPel            : No
Format settings, GMC            : No warppoints
Format settings, Matrix          : Default (H.263)
Muxing mode                      : Packed bitstream
Codec ID                        : XVID
Codec ID/Hint                    : XviD
Duration                        : 1h 20mn
Bit rate                        : 1 090 Kbps
Width                            : 640 pixels
Height                          : 360 pixels
Display aspect ratio            : 16:9
Frame rate                      : 25.000 fps
Color space                      : YUV
Chroma subsampling              : 4:2:0
Bit depth                        : 8 bits
Scan type                        : Progressive
Compression mode                : Lossy
Bits/(Pixel*Frame)              : 0.189
Stream size                      : 629 MiB (89%)
Writing library                  : XviD 1.2.1 (UTC 2008-12-04)

Audio
ID                              : 1
Format                          : MPEG Audio
Format version                  : Version 1
Format profile                  : Layer 3
Mode                            : Joint stereo
Mode extension                  : MS Stereo
Codec ID                        : 55
Codec ID/Hint                    : MP3
Duration                        : 1h 20mn
Bit rate mode                    : Constant
Bit rate                        : 128 Kbps
Channel(s)                      : 2 channels
Sampling rate                    : 44.1 KHz
Compression mode                : Lossy
Stream size                      : 73.8 MiB (10%)
Alignment                        : Split accross interleaves
Interleave, duration            : 40 ms (1.00 video frame)
Interleave, preload duration    : 500 ms


DOWNLOAD:

hellshare

kód:
http://download.hellshare.sk/graduation-2007-avi/3583426

upnito.sk

kód:
http://www.upnito.sk/subor/5154bb32f42cdb9517cfbb7a49d3c79d.html

quickshare.cz
kód:
http://www.quickshare.cz/stahnout-soubor/605039:graduation-2007-avi_708MB

PASS:no
Návrat hore Goto down
Zobrazit informácie o autorovi http://warnerfilm.forumn.org
 
Zkouška z dospělosti / Graduation (2007)
Zobraziť predchádzajúcu tému Zobraziť nasledujúcu tému Návrat hore 
Strana 1 z 1

Povolenie tohoto fóra:Nemôžete odpovedať na témy v tomto fóre.
Vsetko zadarmo :: .::Download filmy::. :: .::Filmy s ceskym a slovenskym dabingom::.-
Prejdi na: