Vsetko zadarmo

Vsetko zadarmo
 
DomovFAQHľadaťRegistráciaZoznam užívateľovUžívateľské skupinyPrihlásenie

Share | 
 

 Sexi kosť/Hot Chick, The(2002)

Zobraziť predchádzajúcu tému Zobraziť nasledujúcu tému Goto down 
AutorSpráva
aismen
Mega Uploader
Mega Uploader


Počet príspevkov : 703
Registration date : 16.04.2008

OdoslaťPredmet: Sexi kosť/Hot Chick, The(2002)   Ne september 18, 2011 7:36 pm

Sexi kosť
Hot Chick, The
Žába k zulíbání


Komedie / Fantasy / Romantický
USA, 2002, 101 min

Režie:Tom Brady
Hudba:John Debney
Hrají:Rob Schneider, Anna Faris, Rachel McAdams, Andrew Keegan, Matthew Lawrence, Melora Hardin, Adam Sandler, Alexandra Holden, Maritza Murray, Sam Doumit, Matt Weinberg, Tia Mowry, Tamera Mowry, Megan Kuhlmann, Ashlee Simpson, Steven Kravitz, Dick Gregory, Katie Lohmann, Robert Davi, Eric Christian Olsen, Michael O'Keefe, Michael Papajohn, Wes Takahashi, Angie Stone, Jodi Long, Giselle Fernandez, Sandra McCoy, Lee Garlington, Berglind Icey

Bujarý Rob Schneider byl ve svém životě gigolem, byl i zvířetem, ale teď ho kouzlo promění v něco, čím nikdy předtím nebyl - stane se ženou! Jessica Spencerová je ta nejúžasnější a nejpopulárnější holka ve škole. Utrpí však pořádný šok, když se probudí v těle třicetiletého, nuzně žijícího muže (Schneider). Rychle zjistí, že život není zdaleka tak jednoduchý! Zvláště pak když jste dívkou, která si potřebuje každé ráno holit plnovous. Jessica zkrátka musí najít způsob, jak se proměnit zpět do své holčičí podoby, a také jak přesvědčit své přátele o tom, že ten chlap je vlastně ona. Od tvůrců filmu Deuce Bigalow: Male Gigolo a Zvíře přichází divoká komedie, kterou si může vychutnat každý - bez ohledu na to, jste-li muž či žena.

info:
kód:
General
Complete name : F:\FILMY\filmy plocha\adam sendler\Žába k zulíbání.avi
Format : AVI
Format/Info : Audio Video Interleave
File size : 688 MiB
Duration : 1h 40mn
Overall bit rate : 960 Kbps
Writing application : Nandub v1.0rc2
Writing library : Nandub build 1853/release

Video
ID : 0
Format : MPEG-4 Visual
Format profile : Simple@L3
Format settings, BVOP : No
Format settings, QPel : No
Format settings, GMC : No warppoints
Format settings, Matrix : Default (MPEG)
Codec ID : XVID
Codec ID/Hint : XviD
Duration : 1h 40mn
Bit rate : 826 Kbps
Width : 592 pixels
Height : 320 pixels
Display aspect ratio : 1.850
Frame rate : 25.000 fps
Original frame rate : 23.976 fps
Color space : YUV
Chroma subsampling : 4:2:0
Bit depth : 8 bits
Scan type : Progressive
Compression mode : Lossy
Bits/(Pixel*Frame) : 0.174
Stream size : 592 MiB (86%)
Writing library : XviD 0.0.09 (UTC 2003-03-25)

Audio
ID : 1
Format : MPEG Audio
Format version : Version 1
Format profile : Layer 3
Mode : Joint stereo
Codec ID : 55
Codec ID/Hint : MP3
Duration : 1h 35mn
Bit rate mode : Constant
Bit rate : 128 Kbps
Channel(s) : 2 channels
Sampling rate : 44.1 KHz
Compression mode : Lossy
Stream size : 87.4 MiB (13%)
Alignment : Aligned on interleaves
Interleave, duration : 27 ms (0.69 video frame)
Interleave, preload duration : 496 ms
Writing library : LAME3.93

DOWNLOAD:
kód:
http://www.upnito.sk/subor/cad5b529e05f952322d42f7df5fd3732.html
PASS:
no
Návrat hore Goto down
Zobrazit informácie o autorovi http://warnerfilm.forumn.org
 
Sexi kosť/Hot Chick, The(2002)
Zobraziť predchádzajúcu tému Zobraziť nasledujúcu tému Návrat hore 
Strana 1 z 1

Povolenie tohoto fóra:Nemôžete odpovedať na témy v tomto fóre.
Vsetko zadarmo :: .::Download filmy::. :: .::Filmy s ceskym a slovenskym dabingom::.-
Prejdi na: