Vsetko zadarmo

Vsetko zadarmo
 
DomovFAQHľadaťRegistráciaZoznam užívateľovUžívateľské skupinyPrihlásenie

Share | 
 

 Vlak plný peněz / Money Train (1995)

Zobraziť predchádzajúcu tému Zobraziť nasledujúcu tému Goto down 
AutorSpráva
aismen
Mega Uploader
Mega Uploader


Počet príspevkov : 703
Registration date : 16.04.2008

OdoslaťPredmet: Vlak plný peněz / Money Train (1995)   Ne september 18, 2011 7:33 pm

Vlak s peniazmi
Vlak plný peňazí
Money Train
Vlak plný peněz


Akční / Komedie / Drama / Krimi
USA, 1995, 103 min

http://www.csfd.cz/film/10885-vlak-plny-penez/

Režie:Joseph Ruben
Hudba:Mark Mancina
Hrají:Wesley Snipes, Woody Harrelson, Jennifer Lopez, Robert Blake, Chris Cooper, Joe Grifasi, Skipp Sudduth, Vincent Laresca, Aida Turturro, Vincent Pastore, Joe Bacino, Oni Faidah Lampley, Saul Stein, Enrico Colantoni, Bill Nunn, Flex Alexander, Dean Norris, Thomas G. Waites, Gregory McKinney, Larry Gilliard Jr.

Charlie a John jsou bratři, přestože první je běloh a druhý černoch. Bydlí v témže domě a dělají společně stejnou práci: policisty v newyorské podzemní dráze. Líbí se jim i stejná dívka, nová hispánská kolegyně Grace Santiagová. i bratři se však někdy pohádají: větroplach Charlie se totiž občas zapomene u hráčského stolu. Elegantní pan Brown dluhy z karet nepromíjí, ale naopak je velice, neelegantně vymáhá. Charlieho napadne, že by se vše vyřešilo, kdyby se podíval na zoubek přísně střeženému vlaku, svážejícímu tržby z jednotlivých stanic. s Johnem byli mnohokrát součástí jeho ostrahy, a tak dobře vědí, jak na to. Když to zjistí svědomitý John, který už dokázal svého lehkomyslného bílého bratra vytáhnout z nejrůznějších problémů, začne mít pořádně zamotanou hlavu...

INFO:
kód:
Format                          : AVI
Format/Info                      : Audio Video Interleave
File size                        : 1.37 GiB
Duration                        : 1h 45mn
Overall bit rate                : 1 855 Kbps
Writing application              : VirtualDubMod 1.5.4.1 (build 2178/release)
Writing library                  : VirtualDubMod build 2178/release

Video
ID                              : 0
Format                          : MPEG-4 Visual
Format profile                  : Advanced Simple@L5
Format settings, BVOP            : 1
Format settings, QPel            : No
Format settings, GMC            : No warppoints
Format settings, Matrix          : Custom
Codec ID                        : XVID
Codec ID/Hint                    : XviD
Duration                        : 1h 45mn
Bit rate                        : 1 654 Kbps
Width                            : 720 pixels
Height                          : 304 pixels
Display aspect ratio            : 2.35:1
Frame rate                      : 25.000 fps
Color space                      : YUV
Chroma subsampling              : 4:2:0
Bit depth                        : 8 bits
Scan type                        : Progressive
Compression mode                : Lossy
Bits/(Pixel*Frame)              : 0.302
Stream size                      : 1.22 GiB (89%)
Writing library                  : XviD 1.2.1 (UTC 2008-12-04)

Audio
ID                              : 1
Format                          : AC-3
Format/Info                      : Audio Coding 3
Mode extension                  : CM (complete main)
Codec ID                        : 2000
Duration                        : 1h 45mn
Bit rate mode                    : Constant
Bit rate                        : 192 Kbps
Channel(s)                      : 2 channels
Channel positions                : Front: L R
Sampling rate                    : 48.0 KHz
Bit depth                        : 16 bits
Compression mode                : Lossy
Stream size                      : 145 MiB (10%)
Alignment                        : Split accross interleaves
Interleave, duration            : 40 ms (1.00 video frame)
Interleave, preload duration    : 500 ms

DOWNLOAD:

hellshare.sk

kód:
http://download.hellshare.sk/vlak-plny-penez-1995-avi/3578025l
alebo
quickshare.cz
kód:
http://www.quickshare.cz/stahnout-soubor/604387:vlak-plny-penez-1995-avi_1401MB
alebo
hellshare
kód:
http://download.hellshare.sk/vlak-plny-penez-1995-avi/3587393



PASS:no
Návrat hore Goto down
Zobrazit informácie o autorovi http://warnerfilm.forumn.org
 
Vlak plný peněz / Money Train (1995)
Zobraziť predchádzajúcu tému Zobraziť nasledujúcu tému Návrat hore 
Strana 1 z 1

Povolenie tohoto fóra:Nemôžete odpovedať na témy v tomto fóre.
Vsetko zadarmo :: .::Download filmy::. :: .::Filmy s ceskym a slovenskym dabingom::.-
Prejdi na: