Vsetko zadarmo

Vsetko zadarmo
 
DomovFAQHľadaťRegistráciaZoznam užívateľovUžívateľské skupinyPrihlásenie

Share | 
 

 Vikingové / Vikingovia / The 13th Warrior (1999)

Zobraziť predchádzajúcu tému Zobraziť nasledujúcu tému Goto down 
AutorSpráva
aismen
Mega Uploader
Mega Uploader


Počet príspevkov : 703
Registration date : 16.04.2008

OdoslaťPredmet: Vikingové / Vikingovia / The 13th Warrior (1999)   Ne september 18, 2011 7:32 pm

Vikingovia
13th Warrior, The
Vikingové


Akční / Dobrodružný / Fantasy
USA, 1999, 102 min

Režie:John McTiernan, Michael Crichton
Hudba:Jerry Goldsmith
Hrají:Antonio Banderas, Vladimír Kulich, Tony Curran, Omar Sharif, Erick Avari, Sven Wollter, Diane Venora, Maria Bonnevie, Kaaren de Zilva, Sven-Ole Thorsen, Chris Angel, Dennis Storhoi


Rok 922. arabský vzdělanec Ahmed Ibn Fadlán se díky vztahu k manželce vysoce postaveného muže musí stát vyslancem ve vzdálené severské zemi. Ve střední Asii se však setká se skupinou Vikingů a proti své vůli se stane jedním z třinácti bojovníků, kteří se mají utkat s tajemnými nepřáteli, sužujícími jejich zemi.

INFO:
kód:
Format                          : AVI
Format/Info                      : Audio Video Interleave
File size                        : 634 MiB
Duration                        : 1h 34mn
Overall bit rate                : 937 Kbps
Writing library                  : VirtualDub build 10805/release

Video
ID                              : 0
Format                          : MPEG-4 Visual
Codec ID                        : DIV3
Codec ID/Hint                    : DivX 3 Low
Duration                        : 1h 34mn
Bit rate                        : 831 Kbps
Width                            : 512 pixels
Height                          : 288 pixels
Display aspect ratio            : 16:9
Frame rate                      : 25.038 fps
Color space                      : YUV
Chroma subsampling              : 4:2:0
Bit depth                        : 8 bits
Compression mode                : Lossy
Bits/(Pixel*Frame)              : 0.225
Stream size                      : 562 MiB (89%)

Audio
ID                              : 1
Format                          : MPEG Audio
Format version                  : Version 1
Format profile                  : Layer 3
Mode                            : Joint stereo
Mode extension                  : Intensity Stereo + MS Stereo
Codec ID                        : 55
Codec ID/Hint                    : MP3
Duration                        : 1h 34mn
Bit rate mode                    : Constant
Bit rate                        : 96.0 Kbps
Channel(s)                      : 2 channels
Sampling rate                    : 44.1 KHz
Compression mode                : Lossy
Stream size                      : 65.0 MiB (10%)
Alignment                        : Split accross interleaves
Interleave, duration            : 40 ms (1.00 video frame)
Interleave, preload duration    : 500 ms

DOWNLOAD:
kód:
http://x7.to/xg4hvk

kód:
http://download.hellshare.sk/vikingovia-avi/3547678

kód:
http://www.upnito.sk/subor/9daea610824c98524a8a0d820b1579ae.html

kód:
http://www.ulozto.sk/10191410/vikingovia-avi
PASS:
no
Návrat hore Goto down
Zobrazit informácie o autorovi http://warnerfilm.forumn.org
 
Vikingové / Vikingovia / The 13th Warrior (1999)
Zobraziť predchádzajúcu tému Zobraziť nasledujúcu tému Návrat hore 
Strana 1 z 1

Povolenie tohoto fóra:Nemôžete odpovedať na témy v tomto fóre.
Vsetko zadarmo :: .::Download filmy::. :: .::Filmy s ceskym a slovenskym dabingom::.-
Prejdi na: