Vsetko zadarmo

Vsetko zadarmo
 
DomovFAQHľadaťRegistráciaZoznam užívateľovUžívateľské skupinyPrihlásenie

Share | 
 

 Vem si mou duši/My Soul to Take(2010)

Zobraziť predchádzajúcu tému Zobraziť nasledujúcu tému Goto down 
AutorSpráva
aismen
Mega Uploader
Mega Uploader


Počet príspevkov : 703
Registration date : 16.04.2008

OdoslaťPredmet: Vem si mou duši/My Soul to Take(2010)   Ne september 18, 2011 7:30 pm

Vezmi si moju dušu 3D
My Soul to Take
Vem si mou duši


Thriller / Horor
USA, 2010, 107 min

http://www.csfd.cz/film/243330-vem-si-mou-dusi/

Režie:Wes Craven
Hudba:Marco Beltrami
Hrají:Max Thieriot, John Magaro, Denzel Whitaker, Zena Grey, Frank Grillo, Dennis Boutsikaris, Shareeka Epps, Hannah Hodson, Emily Meade, Nicole Patrick, Jessica Hecht, Danai Gurira, Harris Yulin

Děj hororu se odehrává v ospalém městečku Riverton ve státě Massachusetts, kde koluje legenda o sériovém vrahovi s rozpolcenou osobností - rivertonském rozparovači. V den, kdy zemřel, přísahal, že se vrátí, aby zavraždil sedm dětí, které se v noci téhož dne narodily (říká se jim Rivertonská sedma). Patnáct let to byla jen povídačka pro děti - až do šestnáctých narozenin dětí z Rivertonské sedmy, kdy je neznámý útočník začne jednoho po druhém vyvražďovat. Zrodil se rozparovač znovu v těle jednoho z nich, nebo snad tehdy vůbec nezemřel? Přežil snad pád do řeky v hořícím voze ambulance? Jeho tělo nebylo nikdy nalezeno, policie tedy věřila v logické vysvětlení, že leží na dně řeky - ale je to tak opravdu? Vše závisí na jednom šestnáctiletém chlapci: musí záhadu rozluštit dříve, než bude on i zbytek Rivertonské sedmy mrtev.

INFO:
kód:
Format                          : AVI
Format/Info                      : Audio Video Interleave
File size                        : 848 MiB
Duration                        : 1h 47mn
Overall bit rate                : 1 105 Kbps
Writing application              : VirtualDubMod 1.5.10.2 (build 2540/release)
Writing library                  : VirtualDubMod build 2540/release

Video
ID                              : 0
Format                          : MPEG-4 Visual
Format profile                  : Advanced Simple@L5
Format settings, BVOP            : 2
Format settings, QPel            : No
Format settings, GMC            : No warppoints
Format settings, Matrix          : Default (H.263)
Codec ID                        : XVID
Codec ID/Hint                    : XviD
Duration                        : 1h 47mn
Bit rate                        : 968 Kbps
Width                            : 640 pixels
Height                          : 272 pixels
Display aspect ratio            : 2.35:1
Frame rate                      : 23.976 fps
Color space                      : YUV
Chroma subsampling              : 4:2:0
Bit depth                        : 8 bits
Scan type                        : Progressive
Compression mode                : Lossy
Bits/(Pixel*Frame)              : 0.232
Stream size                      : 743 MiB (88%)
Writing library                  : XviD 1.2.1 (UTC 2008-12-04)

Audio
ID                              : 1
Format                          : MPEG Audio
Format version                  : Version 1
Format profile                  : Layer 3
Mode                            : Joint stereo
Mode extension                  : MS Stereo
Codec ID                        : 55
Codec ID/Hint                    : MP3
Duration                        : 1h 47mn
Bit rate mode                    : Constant
Bit rate                        : 128 Kbps
Channel(s)                      : 2 channels
Sampling rate                    : 48.0 KHz
Compression mode                : Lossy
Delay relative to video          : 24ms
Stream size                      : 98.1 MiB (12%)
Alignment                        : Aligned on interleaves
Interleave, duration            : 42 ms (1.00 video frame)
Interleave, preload duration    : 504 ms
DOWNLOAD:


hellshare

kód:
http://download.hellshare.sk/vem-si-moji-dusi-avi/3559269

upnito.sk

kód:
http://www.upnito.sk/subor/f8294cd7bef2759a0afd8d1e3edb9581.html

ulozto.sk

kód:
http://www.ulozto.sk/10217718/vem-si-moji-dusi-avi

filefactory.com

kód:
http://www.filefactory.com/file/cd9ea58/n/vem_si_moji_du_i.avi

rapidshare.com

kód:
https://rapidshare.com/files/3817714810/vem_si_moji_duši.avi

x7.to
kód:
http://x7.to/25jhbn

PASS:no
Návrat hore Goto down
Zobrazit informácie o autorovi http://warnerfilm.forumn.org
 
Vem si mou duši/My Soul to Take(2010)
Zobraziť predchádzajúcu tému Zobraziť nasledujúcu tému Návrat hore 
Strana 1 z 1

Povolenie tohoto fóra:Nemôžete odpovedať na témy v tomto fóre.
Vsetko zadarmo :: .::Download filmy::. :: .::Filmy s ceskym a slovenskym dabingom::.-
Prejdi na: