Vsetko zadarmo

Vsetko zadarmo
 
DomovFAQHľadaťRegistráciaZoznam užívateľovUžívateľské skupinyPrihlásenie

Share | 
 

 Velký táta/Big Daddy(1999)

Zobraziť predchádzajúcu tému Zobraziť nasledujúcu tému Goto down 
AutorSpráva
aismen
Mega Uploader
Mega Uploader


Počet príspevkov : 703
Registration date : 16.04.2008

OdoslaťPredmet: Velký táta/Big Daddy(1999)   Ne september 18, 2011 7:28 pm

Veľký tato
Big Daddy
Velký táta


Komedie / Drama
USA, 1999, 93 min

Režie:Dennis Dugan
Hudba:Teddy Castellucci
Hrají:Adam Sandler, Joey Lauren Adams, Jon Stewart, Cole Sprouse, Dylan Sprouse, Josh Mostel, Leslie Mann, Allen Covert, Rob Schneider, Kristy Swanson, Joseph Bologna, Jonathan Loughran, Steve Buscemi, Geoffrey Horne, Steven Brill, Glen Trotiner, Dennis Dugan, Peter Dante, George Hall, Neal Huff


Sonny Koufax (Adam Sandler) už dávno dokončil studium práv a nedávno dokonce překročil třicítku. Ale proč se stát zodpovědným dospělým mužem, který buduje kariéru a stará se o rodinu, když svět kolem nás nabízí tolik vzrušujících dobrodružství a nezávazné zábavy? Pak ovšem dojde v Sonnyho životě ke klíčové události. V jeho bytě se shodou náhod objeví pětiletý Julian, prý nemanželský syn Sonnyho spolubydlícího. Sonnyho napadne, že by si chlapce mohl přisvojit a tak dokázat své přítelkyni, že se dokáže vyrovnat se zodpovědností dospělých. Přítelkyně ale bohužel dá Sonnymu kopačky a na to, aby se Juliana zbavil, je už pozdě. Přes všechny šílené maléry v sobě totiž obě děti - pětileté i třicetileté - nalezly neobvyklé zalíbení. Jak asi tohle šílené soužití může dopadnout?

INFO:
kód:
General
Complete name : F:\FILMY\filmy plocha\adam sendler\Velký táta (1999).avi
Format : AVI
Format/Info : Audio Video Interleave
File size : 904 MiB
Duration : 1h 29mn
Overall bit rate : 1 417 Kbps
Writing application : VirtualDubMod 1.5.4.1 (build 2066/release)
Writing library : VirtualDubMod build 2066/release

Video
ID : 0
Format : MPEG-4 Visual
Format profile : Advanced Simple@L5
Format settings, BVOP : 2
Format settings, QPel : No
Format settings, GMC : No warppoints
Format settings, Matrix : Default (H.263)
Codec ID : XVID
Codec ID/Hint : XviD
Duration : 1h 29mn
Bit rate : 960 Kbps
Width : 640 pixels
Height : 272 pixels
Display aspect ratio : 2.35:1
Frame rate : 23.976 fps
Color space : YUV
Chroma subsampling : 4:2:0
Bit depth : 8 bits
Scan type : Progressive
Compression mode : Lossy
Bits/(Pixel*Frame) : 0.230
Stream size : 613 MiB (68%)
Writing library : XviD 1.2.0.dev47 (UTC 2006-11-01)

Audio
ID : 1
Format : AC-3
Format/Info : Audio Coding 3
Mode extension : CM (complete main)
Codec ID : 2000
Duration : 1h 29mn
Bit rate mode : Constant
Bit rate : 448 Kbps
Channel(s) : 2 channels
Channel positions : Front: L R
Sampling rate : 48.0 KHz
Bit depth : 16 bits
Compression mode : Lossy
Stream size : 286 MiB (32%)
Alignment : Split accross interleaves
Interleave, duration : 42 ms (1.00 video frame)
Interleave, preload duration : 500 ms

DOWNLOAD:
kód:
http://www.upnito.sk/subor/8cecc89af7931d89d79d1eeec8e8a56b.html

kód:
http://download.hellshare.sk/velky-tata-1999-avi/3525431
PASS:
no
Návrat hore Goto down
Zobrazit informácie o autorovi http://warnerfilm.forumn.org
 
Velký táta/Big Daddy(1999)
Zobraziť predchádzajúcu tému Zobraziť nasledujúcu tému Návrat hore 
Strana 1 z 1

Povolenie tohoto fóra:Nemôžete odpovedať na témy v tomto fóre.
Vsetko zadarmo :: .::Download filmy::. :: .::Filmy s ceskym a slovenskym dabingom::.-
Prejdi na: