Vsetko zadarmo

Vsetko zadarmo
 
DomovFAQHľadaťRegistráciaZoznam užívateľovUžívateľské skupinyPrihlásenie

Share | 
 

 Osobní spravedlnost / Flock, The (2007)

Zobraziť predchádzajúcu tému Zobraziť nasledujúcu tému Goto down 
AutorSpráva
aismen
Mega Uploader
Mega Uploader


Počet príspevkov : 703
Registration date : 16.04.2008

OdoslaťPredmet: Osobní spravedlnost / Flock, The (2007)   Ne september 18, 2011 7:25 pm

Osobná spravodlivosť
Flock, The
Osobní spravedlnost


Akční / Drama / Krimi / Thriller
USA, 2007, 101 min

http://www.csfd.cz/film/224840-osobni-spravedlnost/

Režie:Wai Keung Lau, Niels Mueller
Hudba:Guy Farley
Hrají:Richard Gere, Claire Danes, KaDee Strickland, Ray Wise, Avril Lavigne, Kristina Sisco, Matt Schulze, Ed Ackerman, French Stewart, Twink Caplan, J. Nathan Simmons


Federální agent (R.Gere) před odchodem na odpočinek zaučuje svou nástupkyni (C. Danes) a přitom hledá nezvěstnou dívku. Je přesvědčen, že za její zmizení je odpovědný propuštěný sexuální násilník, kterého vyšetřuje. Přestože ho tlačí čas, rozmotá klubko stop vedoucí k potencionálnímu vrahovi.

INFO:
kód:
Format                          : AVI
Format/Info                      : Audio Video Interleave
File size                        : 701 MiB
Duration                        : 1h 45mn
Overall bit rate                : 931 Kbps
Writing application              : VirtualDubMod 1.5.4.1 (build 2178/release)
Writing library                  : VirtualDubMod build 2178/release

Video
ID                              : 0
Format                          : MPEG-4 Visual
Format profile                  : Advanced Simple@L5
Format settings, BVOP            : 1
Format settings, QPel            : No
Format settings, GMC            : No warppoints
Format settings, Matrix          : Custom
Codec ID                        : XVID
Codec ID/Hint                    : XviD
Duration                        : 1h 45mn
Bit rate                        : 476 Kbps
Width                            : 560 pixels
Height                          : 240 pixels
Display aspect ratio            : 2.35:1
Frame rate                      : 25.000 fps
Color space                      : YUV
Chroma subsampling              : 4:2:0
Bit depth                        : 8 bits
Scan type                        : Progressive
Compression mode                : Lossy
Bits/(Pixel*Frame)              : 0.142
Stream size                      : 358 MiB (51%)
Writing library                  : XviD 1.2.1 (UTC 2008-12-04)

Audio
ID                              : 1
Format                          : AC-3
Format/Info                      : Audio Coding 3
Mode extension                  : CM (complete main)
Codec ID                        : 2000
Duration                        : 1h 45mn
Bit rate mode                    : Constant
Bit rate                        : 448 Kbps
Channel(s)                      : 6 channels
Channel positions                : Front: L C R, Side: L R, LFE
Sampling rate                    : 48.0 KHz
Bit depth                        : 16 bits
Compression mode                : Lossy
Stream size                      : 337 MiB (48%)
Alignment                        : Split accross interleaves
Interleave, duration            : 96 ms (2.40 video frames)
Interleave, preload duration    : 96 ms
Language                        : Czech


DOWNLOAD:


hellshare

kód:
http://download.hellshare.sk/the-flock-avi/3560314

upnito.sk

kód:
http://www.upnito.sk/subor/0b5d5d94f8875177e460f14b81dda5c8.html

ulozto.sk

kód:
http://www.ulozto.sk/10219280/the-flock-avi

filefactory.com

kód:
http://www.filefactory.com/file/c538478/n/The_Flock.avi

rapidshare.com

kód:
https://rapidshare.com/files/3066030842/The_Flock.avi

x7.to
kód:
http://x7.to/vo00j3

quickshare.cz
kód:
http://www.quickshare.cz/stahnout-soubor/602904:the-flock-avi_701MB

PASS:no
Návrat hore Goto down
Zobrazit informácie o autorovi http://warnerfilm.forumn.org
 
Osobní spravedlnost / Flock, The (2007)
Zobraziť predchádzajúcu tému Zobraziť nasledujúcu tému Návrat hore 
Strana 1 z 1

Povolenie tohoto fóra:Nemôžete odpovedať na témy v tomto fóre.
Vsetko zadarmo :: .::Download filmy::. :: .::Filmy s ceskym a slovenskym dabingom::.-
Prejdi na: