Vsetko zadarmo

Vsetko zadarmo
 
DomovFAQHľadaťRegistráciaZoznam užívateľovUžívateľské skupinyPrihlásenie

Share | 
 

 Test / The recruit (2003)

Zobraziť predchádzajúcu tému Zobraziť nasledujúcu tému Goto down 
AutorSpráva
aismen
Mega Uploader
Mega Uploader


Počet príspevkov : 703
Registration date : 16.04.2008

OdoslaťPredmet: Test / The recruit (2003)   Ne september 18, 2011 7:22 pm

Farma
Test
Recruit, The
Test


Thriller / Akční
USA, 2003, 115 min

Režie:Roger Donaldson
Hudba:Klaus Badelt
Hrají:Al Pacino, Colin Farrell, Bridget Moynahan, Gabriel Macht, Kenneth Mitchell, Mike Realba, Eugene Lipinski, Neil Crone, Ron Lea, Elisa Moolecherry


Walter Burke (Al Pacino) je veterán v CIA. Jeho terajšie zameranie je hľadať nové talenty. A je v tom fakt dobrý. Nič netušiaci programátor James Clayton (Collin Farrell) sa cez neho dostane až na "Farmu" - výcvikové stredisko kadetov pre CIA. "Všetko je len test" - nezabudne na začiatku pripomenúť Burke, teraz v roli vedúceho tréningového programu. A je ich neúrekom - od tréningov fyzických zručností až po psychické testy a vydierania. Nikto si nie je ničím istý. Len James, keď mu po jednom preňho neúspešnom cvičení dajú vedieť, že sa pre CIA nehodí. Sklamanie treba zapiť. Ale čo ak aj toto bol len test?

INFO:
kód:
Format                          : AVI
Format/Info                      : Audio Video Interleave
File size                        : 697 MiB
Duration                        : 1h 48mn
Overall bit rate                : 896 Kbps

Video
ID                              : 0
Format                          : MPEG-4 Visual
Format profile                  : Advanced Simple@L5
Format settings, BVOP            : 2
Format settings, QPel            : No
Format settings, GMC            : No warppoints
Format settings, Matrix          : Default (H.263)
Muxing mode                      : Packed bitstream
Codec ID                        : XVID
Codec ID/Hint                    : XviD
Duration                        : 1h 48mn
Bit rate                        : 694 Kbps
Width                            : 720 pixels
Height                          : 480 pixels
Display aspect ratio            : 3:2
Frame rate                      : 25.000 fps
Standard                        : NTSC
Color space                      : YUV
Chroma subsampling              : 4:2:0
Bit depth                        : 8 bits
Scan type                        : Progressive
Compression mode                : Lossy
Bits/(Pixel*Frame)              : 0.080
Stream size                      : 540 MiB (77%)
Writing library                  : XviD 1.1.0 (UTC 2005-11-22)

Audio
ID                              : 1
Format                          : MPEG Audio
Format version                  : Version 1
Format profile                  : Layer 3
Codec ID                        : 55
Codec ID/Hint                    : MP3
Duration                        : 1h 48mn
Bit rate mode                    : Constant
Bit rate                        : 192 Kbps
Channel(s)                      : 2 channels
Sampling rate                    : 44.1 KHz
Compression mode                : Lossy
Delay relative to video          : 26ms
Stream size                      : 149 MiB (21%)
Alignment                        : Split accross interleaves
Interleave, duration            : 40 ms (1.00 video frame)
Title                            : Audio Stream
Writing library                  : LAME3.92

DOWNLOAD:
hellshare
kód:

http://download.hellshare.sk/test-2003-avi/3548110
upnito.sk
kód:
http://www.upnito.sk/subor/ccc6aea021bf860070b06cbab7c39a96.html
ulozto.sk
kód:
http://www.ulozto.sk/10192696/test-2003-avi
x7.to
kód:
http://x7.to/no3ce1

PASS:
no
Návrat hore Goto down
Zobrazit informácie o autorovi http://warnerfilm.forumn.org
 
Test / The recruit (2003)
Zobraziť predchádzajúcu tému Zobraziť nasledujúcu tému Návrat hore 
Strana 1 z 1

Povolenie tohoto fóra:Nemôžete odpovedať na témy v tomto fóre.
Vsetko zadarmo :: .::Download filmy::. :: .::Filmy s ceskym a slovenskym dabingom::.-
Prejdi na: