Vsetko zadarmo

Vsetko zadarmo
 
DomovFAQHľadaťRegistráciaZoznam užívateľovUžívateľské skupinyPrihlásenie

Share | 
 

 Tenkrát v Americe/Once Upon a Time in America(1984)

Zobraziť predchádzajúcu tému Zobraziť nasledujúcu tému Goto down 
AutorSpráva
aismen
Mega Uploader
Mega Uploader


Počet príspevkov : 703
Registration date : 16.04.2008

OdoslaťPredmet: Tenkrát v Americe/Once Upon a Time in America(1984)   Ne september 18, 2011 7:20 pm

Vtedy v Amerike
Once Upon a Time in America
C'era una volta in America
Tenkrát v Americe


Krimi / Drama / Thriller
USA / Itálie, 1984, 139 min (SE: 229 min)

http://tranlang.webpark.cz/TenkratVamerice.jpeg

Režie:Sergio Leone
Hudba:Ennio Morricone
Hrají:Robert De Niro, James Woods, Elizabeth McGovern, Treat Williams, Tuesday Weld, Joe Pesci, Burt Young, Danny Aiello, William Forsythe, Darlanne Fluegel, James Hayden, Richard Bright, James Russo, Scott Schutzman Tiler, Rusty Jacobs, Brian Bloom, Adrian Curran, Jennifer Connelly, Chuck Low, Scott Coffey, Olga Karlatos

Mladá žena se v noci vrací do hotelového pokoje. Čekají tam na ni neznámí muži, policisté, kteří chtějí vědět, kam zmizel její milenec Noodles. Jeho tři kamarádi, Patrick Goldberg, Philip Stein a Maximilian Bercovicz jsou již mrtví. Když žena odpoví, že neví, chladnokrevně ji zastřelí Se stejnou otázkou mučí i majitele drahé restaurace Fat Moea, který nakonec prozradí: Noodles je v čínském divadle. Než tam policisté dorazí, Noodles stačí zmizet. Hledá kufřík s penězi, kam ukládali s kamarády společné úspory, najde v něm ale jen staré noviny. Odjíždí se skrýt do Buffala a o pár let později se vzpomínky a strach z pronásledování vracejí.


INFO:
kód:

CD1
Format                          : AVI
Format/Info                      : Audio Video Interleave
File size                        : 696 MiB
Duration                        : 1h 54mn
Overall bit rate                : 847 Kbps
Writing application              : VirtualDubMod 1.5.10.2 (build 2540/release)
Writing library                  : VirtualDubMod build 2540/release

Video
ID                              : 0
Format                          : MPEG-4 Visual
Format profile                  : Advanced Simple@L5
Format settings, BVOP            : 1
Format settings, QPel            : No
Format settings, GMC            : No warppoints
Format settings, Matrix          : Custom
Codec ID                        : XVID
Codec ID/Hint                    : XviD
Duration                        : 1h 54mn
Bit rate                        : 709 Kbps
Width                            : 544 pixels
Height                          : 304 pixels
Display aspect ratio            : 16:9
Frame rate                      : 25.000 fps
Color space                      : YUV
Chroma subsampling              : 4:2:0
Bit depth                        : 8 bits
Scan type                        : Progressive
Compression mode                : Lossy
Bits/(Pixel*Frame)              : 0.172
Stream size                      : 583 MiB (84%)
Writing library                  : XviD 1.2.0.dev47 (UTC 2006-11-01)

Audio
ID                              : 1
Format                          : MPEG Audio
Format version                  : Version 1
Format profile                  : Layer 3
Mode                            : Joint stereo
Codec ID                        : 55
Codec ID/Hint                    : MP3
Duration                        : 1h 54mn
Bit rate mode                    : Constant
Bit rate                        : 128 Kbps
Channel(s)                      : 2 channels
Sampling rate                    : 48.0 KHz
Compression mode                : Lossy
Stream size                      : 105 MiB (15%)
Alignment                        : Aligned on interleaves
Interleave, duration            : 40 ms (1.00 video frame)
Interleave, preload duration    : 504 ms

CD2
Format                          : AVI
Format/Info                      : Audio Video Interleave
File size                        : 696 MiB
Duration                        : 1h 44mn
Overall bit rate                : 931 Kbps
Writing application              : VirtualDubMod 1.5.10.2 (build 2540/release)
Writing library                  : VirtualDubMod build 2540/release

Video
ID                              : 0
Format                          : MPEG-4 Visual
Format profile                  : Advanced Simple@L5
Format settings, BVOP            : 1
Format settings, QPel            : No
Format settings, GMC            : No warppoints
Format settings, Matrix          : Custom
Codec ID                        : XVID
Codec ID/Hint                    : XviD
Duration                        : 1h 44mn
Bit rate                        : 793 Kbps
Width                            : 544 pixels
Height                          : 304 pixels
Display aspect ratio            : 16:9
Frame rate                      : 25.000 fps
Color space                      : YUV
Chroma subsampling              : 4:2:0
Bit depth                        : 8 bits
Scan type                        : Progressive
Compression mode                : Lossy
Bits/(Pixel*Frame)              : 0.192
Stream size                      : 593 MiB (85%)
Writing library                  : XviD 1.2.0.dev47 (UTC 2006-11-01)

Audio
ID                              : 1
Format                          : MPEG Audio
Format version                  : Version 1
Format profile                  : Layer 3
Mode                            : Joint stereo
Mode extension                  : MS Stereo
Codec ID                        : 55
Codec ID/Hint                    : MP3
Duration                        : 1h 44mn
Bit rate mode                    : Constant
Bit rate                        : 128 Kbps
Channel(s)                      : 2 channels
Sampling rate                    : 48.0 KHz
Compression mode                : Lossy
Delay relative to video          : 2s 16ms
Stream size                      : 95.8 MiB (14%)
Alignment                        : Split accross interleaves
Interleave, duration            : 40 ms (1.00 video frame)
Interleave, preload duration    : 504 ms

CD1
DOWNLOAD:

hellshare

kód:
http://download.hellshare.sk/tenkrat-v-americe-1984-cd1-avi/3578383

upnito.sk

kód:
http://www.upnito.sk/subor/da967d4ae6ba8587590fafea641a428c.html

quickshare.cz
kód:
http://www.quickshare.cz/stahnout-soubor/604468:tenkrat-v-americe-1984-cd1-avi_696MB

CD2

hellshare

kód:
http://download.hellshare.sk/tenkrat-v-americe-cd2-avi/3578402

upnito.sk

kód:
http://www.upnito.sk/subor/192b7118a8e0ee014b463305200c31cc.html

quickshare.cz
kód:
http://www.quickshare.cz/stahnout-soubor/604474:tenkrat-v-americe-cd2-avi_696MB

PASS:no
Návrat hore Goto down
Zobrazit informácie o autorovi http://warnerfilm.forumn.org
 
Tenkrát v Americe/Once Upon a Time in America(1984)
Zobraziť predchádzajúcu tému Zobraziť nasledujúcu tému Návrat hore 
Strana 1 z 1

Povolenie tohoto fóra:Nemôžete odpovedať na témy v tomto fóre.
Vsetko zadarmo :: .::Download filmy::. :: .::Filmy s ceskym a slovenskym dabingom::.-
Prejdi na: