Vsetko zadarmo

Vsetko zadarmo
 
DomovFAQHľadaťRegistráciaZoznam užívateľovUžívateľské skupinyPrihlásenie

Share | 
 

 Simonův vesmír / Simple Simon (2010)

Zobraziť predchádzajúcu tému Zobraziť nasledujúcu tému Goto down 
AutorSpráva
aismen
Mega Uploader
Mega Uploader


Počet príspevkov : 703
Registration date : 16.04.2008

OdoslaťPredmet: Simonův vesmír / Simple Simon (2010)   Ne september 18, 2011 7:17 pm

I rymden finns inga känslor
Simonův vesmír
Simple Simon


Komedie / Drama
Švédsko, 2010, 82 min
http://www.csfd.cz/film/291550-simonuv-vesmir/
Režie:Andreas Öhman
Hrají:Bill Skarsgard, Martin Wallström, Cecilia Forss, Sofie Hamilton


„Jmenuji se Simon. Mám Aspergerův syndrom. Mám rád vesmír, věci ve tvaru kruhu a svého bratra Sama, který se o mě stará. Nemám rád city, ostatní lidi, změny a komedie s Hughem Grantem.“ Osmnáctiletý Simon trpí poruchou osobnosti a každý den je pro něj velmi náročný. Díky trpělivé péči svého bratra Sama a pevně nastavenému režimu je Simon schopen fungovat. Stav věcí naruší rozchod Sama s jeho přítelkyní. Její odchod z domácnosti dopadne nepříznivě na oba bratry. Když Sam propadne depresi, Simonův život se změní v nesnesitelný chaos. Rozhodne se proto vzít situaci do vlastních rukou. Aby znovu nastolil ztracený řád, musí najít bratrovi novou, dokonalou dívku.

INFO:
kód:
Format                          : AVI
Format/Info                      : Audio Video Interleave
File size                        : 798 MiB
Duration                        : 1h 22mn
Overall bit rate                : 1 360 Kbps
Writing application              : VirtualDubMod 1.5.10.2 (build 2542/release)
Writing library                  : VirtualDubMod build 2542/release

Video
ID                              : 0
Format                          : MPEG-4 Visual
Format profile                  : Advanced Simple@L5
Format settings, BVOP            : 1
Format settings, QPel            : No
Format settings, GMC            : No warppoints
Format settings, Matrix          : Default (H.263)
Muxing mode                      : Packed bitstream
Codec ID                        : XVID
Codec ID/Hint                    : XviD
Duration                        : 1h 22mn
Bit rate                        : 1 222 Kbps
Width                            : 720 pixels
Height                          : 406 pixels
Display aspect ratio            : 16:9
Frame rate                      : 25.000 fps
Color space                      : YUV
Chroma subsampling              : 4:2:0
Bit depth                        : 8 bits
Scan type                        : Progressive
Compression mode                : Lossy
Bits/(Pixel*Frame)              : 0.167
Stream size                      : 718 MiB (90%)
Writing library                  : XviD 1.2.1 (UTC 2008-12-04)

Audio
ID                              : 1
Format                          : MPEG Audio
Format version                  : Version 1
Format profile                  : Layer 3
Mode                            : Joint stereo
Mode extension                  : MS Stereo
Codec ID                        : 55
Codec ID/Hint                    : MP3
Duration                        : 1h 22mn
Bit rate mode                    : Constant
Bit rate                        : 128 Kbps
Channel(s)                      : 2 channels
Sampling rate                    : 44.1 KHz
Compression mode                : Lossy
Stream size                      : 75.2 MiB (9%)
Alignment                        : Split accross interleaves
Interleave, duration            : 40 ms (1.00 video frame)
Interleave, preload duration    : 500 ms


DOWNLOAD:

hellshare

kód:
http://download.hellshare.sk/simonuv-vesmir-2010-avi/3592682

upnito.sk

kód:
http://www.upnito.sk/subor/f6cb87b52fb30017e83761f08ffac02f.html

quickshare.cz
kód:
http://www.quickshare.cz/stahnout-soubor/605904:simonuv-vesmir-2010-avi_798MB

PASS:no
Návrat hore Goto down
Zobrazit informácie o autorovi http://warnerfilm.forumn.org
 
Simonův vesmír / Simple Simon (2010)
Zobraziť predchádzajúcu tému Zobraziť nasledujúcu tému Návrat hore 
Strana 1 z 1

Povolenie tohoto fóra:Nemôžete odpovedať na témy v tomto fóre.
Vsetko zadarmo :: .::Download filmy::. :: .::Filmy s ceskym a slovenskym dabingom::.-
Prejdi na: