Vsetko zadarmo

Vsetko zadarmo
 
DomovFAQHľadaťRegistráciaZoznam užívateľovUžívateľské skupinyPrihlásenie

Share | 
 

 Říše drog/New Jack City(1991)

Zobraziť predchádzajúcu tému Zobraziť nasledujúcu tému Goto down 
AutorSpráva
aismen
Mega Uploader
Mega Uploader


Počet príspevkov : 703
Registration date : 16.04.2008

OdoslaťPredmet: Říše drog/New Jack City(1991)   Ne september 18, 2011 7:16 pm

Ríša drog
New Jack City
Říše drog


Akční / Krimi / Drama
USA, 1991, 97 min

http://www.csfd.cz/film/9267-rise-drog/

Režie:Mario Van Peebles
Hudba:Michel Colombier, Vassal Benford
Hrají:Wesley Snipes, Ice-T, Chris Rock, Mario Van Peebles, Michael Michele, Bill Nunn, Russell Wong, Bill Cobbs, Judd Nelson, Vanessa Williams, Tina Lifford, Akosua Busia, Fab 5 Freddy, Anthony DeSando, Flavor Flav

Crack ovládl černošská ghetta stejně jako další místa v New Yorku. Droga umožnila vytvořit říši, díky které nesmírně bohatne drogový král Nino Brown (Wesley Snipes). Krimi ŘÍŠE DROG je kronikou vzestupu a pádu tohoto mafiána, jehož ceta k moci neznamená nic jiného než smrt pro kohokoli, kdo nedokáže odolat zákeřnému narkotiku.

INFO:
kód:
Format                          : AVI
Format/Info                      : Audio Video Interleave
File size                        : 1.37 GiB
Duration                        : 1h 36mn
Overall bit rate                : 2 038 Kbps
Writing application              : VirtualDubMod 1.5.4.1 (build 2178/release)
Writing library                  : VirtualDubMod build 2178/release

Video
ID                              : 0
Format                          : MPEG-4 Visual
Format profile                  : Advanced Simple@L5
Format settings, BVOP            : 1
Format settings, QPel            : No
Format settings, GMC            : No warppoints
Format settings, Matrix          : Custom
Codec ID                        : XVID
Codec ID/Hint                    : XviD
Duration                        : 1h 36mn
Bit rate                        : 1 839 Kbps
Width                            : 672 pixels
Height                          : 384 pixels
Display aspect ratio            : 16:9
Frame rate                      : 25.000 fps
Color space                      : YUV
Chroma subsampling              : 4:2:0
Bit depth                        : 8 bits
Scan type                        : Progressive
Compression mode                : Lossy
Bits/(Pixel*Frame)              : 0.285
Stream size                      : 1.23 GiB (90%)
Writing library                  : XviD 1.2.1 (UTC 2008-12-04)

Audio
ID                              : 1
Format                          : AC-3
Format/Info                      : Audio Coding 3
Mode extension                  : CM (complete main)
Codec ID                        : 2000
Duration                        : 1h 36mn
Bit rate mode                    : Constant
Bit rate                        : 192 Kbps
Channel(s)                      : 2 channels
Channel positions                : Front: L R
Sampling rate                    : 48.0 KHz
Bit depth                        : 16 bits
Compression mode                : Lossy
Stream size                      : 132 MiB (9%)
Alignment                        : Split accross interleaves
Interleave, duration            : 96 ms (2.40 video frames)
Interleave, preload duration    : 96 ms
Language                        : Czech

DOWNLOAD:

hellshare

kód:
http://download.hellshare.sk/rise-drog-1991-avi/3577594

filefactory.com

kód:
http://www.filefactory.com/file/ceaddb2/n/Říše_drog_(1991).avi

rapidshare.com

kód:
https://rapidshare.com/files/151666853/Říše_drog__1991_.avi

quickshare.cz
kód:
http://www.quickshare.cz/stahnout-soubor/604325:rise-drog-1991-avi_1401MB

upnito.sk

kód:
http://www.upnito.sk/subor/26bc7f3ca623beb481f1ad92a711af5f.html
http://www.upnito.sk/subor/9660d346af3ac9daa0dc636c83abd9ba.html

PASS:no
Návrat hore Goto down
Zobrazit informácie o autorovi http://warnerfilm.forumn.org
 
Říše drog/New Jack City(1991)
Zobraziť predchádzajúcu tému Zobraziť nasledujúcu tému Návrat hore 
Strana 1 z 1

Povolenie tohoto fóra:Nemôžete odpovedať na témy v tomto fóre.
Vsetko zadarmo :: .::Download filmy::. :: .::Filmy s ceskym a slovenskym dabingom::.-
Prejdi na: