Vsetko zadarmo

Vsetko zadarmo
 
DomovFAQHľadaťRegistráciaZoznam užívateľovUžívateľské skupinyPrihlásenie

Share | 
 

 První liga 3: Zpátky do druhé ligyú/Major League(1998)

Zobraziť predchádzajúcu tému Zobraziť nasledujúcu tému Goto down 
AutorSpráva
aismen
Mega Uploader
Mega Uploader


Počet príspevkov : 703
Registration date : 16.04.2008

OdoslaťPredmet: První liga 3: Zpátky do druhé ligyú/Major League(1998)   Ne september 18, 2011 7:14 pm

Prvá liga: Naspäť do druhej ligy
Major League: Back to the Minors
První liga 3: Zpátky do druhé ligy


Komedie / Sportovní
USA, 1998, 96 min

Režie:John Warren
Hudba:Robert Folk
Hrají:Scott Bakula, Corbin Bernsen, Dennis Haysbert, Jensen Daggett, Ted McGinley, Kenny Johnson, Walton Goggins, Judson Mills, Thom Barry, Larry Brandenburg, Tim Ware, Ted Manson


Může druholigový team porazit prvoligový zázrak? Co uděláte, když se stanete novým manažerem druholigového baseballového mužstva? Je jenom jedna rada: modlete se, aby pršelo!!! Gus Cantrel dospěl ke svému poslednímu hodu. Jeho letní hvězda pohasla a on dospěl ke konci své kariéry. Ale dříve, než si pustil poslední sprchu po utkání, jeho starý přítel Roger Dorn, majitel prvoligového hvězdného týmu Minnesota Twins, přišel s nabídkou. Potřebuje trenéra pro svůj farmářský tým z Jižní Karoliny. A protože Gus potřebuje nový džob, ochotně přijímá, aniž tuší, co ho čeká. Banda nešiků a lenochodů, která na něj v Karolině čeká se totiž řídí heslem: "Chybovati je lidské"

INFO:
kód:
Format                          : AVI
Format/Info                      : Audio Video Interleave
File size                        : 792 MiB
Duration                        : 1h 39mn
Overall bit rate                : 1 109 Kbps
Writing application              : VirtualDubMod 1.5.10.2 (build 2542/release)
Writing library                  : VirtualDubMod build 2542/release

Video
ID                              : 0
Format                          : MPEG-4 Visual
Format profile                  : Advanced Simple@L5
Format settings, BVOP            : 1
Format settings, QPel            : No
Format settings, GMC            : No warppoints
Format settings, Matrix          : Custom
Codec ID                        : XVID
Codec ID/Hint                    : XviD
Duration                        : 1h 39mn
Bit rate                        : 829 Kbps
Width                            : 672 pixels
Height                          : 384 pixels
Display aspect ratio            : 16:9
Frame rate                      : 23.976 fps
Color space                      : YUV
Chroma subsampling              : 4:2:0
Bit depth                        : 8 bits
Scan type                        : Progressive
Compression mode                : Lossy
Bits/(Pixel*Frame)              : 0.134
Stream size                      : 593 MiB (75%)
Writing library                  : XviD 1.2.0SMP (UTC 2006-01-08)

Audio #1
ID                              : 1
Format                          : MPEG Audio
Codec ID                        : 55
Codec ID/Hint                    : MP3
Duration                        : 1h 39mn
Bit rate                        : 128 Kbps
Channel(s)                      : 2 channels
Sampling rate                    : 48.0 KHz
Compression mode                : Lossy
Stream size                      : 91.2 MiB (12%)
Alignment                        : Split accross interleaves
Interleave, duration            : 42 ms (1.00 video frame)
Interleave, preload duration    : 504 ms
Language                        : English

Audio #2
ID                              : 2
Format                          : MPEG Audio
Format version                  : Version 1
Format profile                  : Layer 3
Mode                            : Joint stereo
Mode extension                  : MS Stereo
Codec ID                        : 55
Codec ID/Hint                    : MP3
Duration                        : 1h 39mn
Bit rate mode                    : Variable
Bit rate                        : 134 Kbps
Nominal bit rate                : 144 Kbps
Channel(s)                      : 2 channels
Sampling rate                    : 48.0 KHz
Compression mode                : Lossy
Stream size                      : 96.0 MiB (12%)
Alignment                        : Aligned on interleaves
Interleave, duration            : 24 ms (0.58 video frame)
Interleave, preload duration    : 137 ms
DOWNLOAD:
kód:
http://www.upnito.sk/subor/2824f3af2ee07225edcddd307e24d2dd.html

kód:
http://download.hellshare.sk/prvni-liga3-1998-avi/3546414
PASS:
no
Návrat hore Goto down
Zobrazit informácie o autorovi http://warnerfilm.forumn.org
 
První liga 3: Zpátky do druhé ligyú/Major League(1998)
Zobraziť predchádzajúcu tému Zobraziť nasledujúcu tému Návrat hore 
Strana 1 z 1

Povolenie tohoto fóra:Nemôžete odpovedať na témy v tomto fóre.
Vsetko zadarmo :: .::Download filmy::. :: .::Filmy s ceskym a slovenskym dabingom::.-
Prejdi na: