Vsetko zadarmo

Vsetko zadarmo
 
DomovFAQHľadaťRegistráciaZoznam užívateľovUžívateľské skupinyPrihlásenie

Share | 
 

 První liga 2 / Prvá liga II / Major League II (1994)

Zobraziť predchádzajúcu tému Zobraziť nasledujúcu tému Goto down 
AutorSpráva
aismen
Mega Uploader
Mega Uploader


Počet príspevkov : 703
Registration date : 16.04.2008

OdoslaťPredmet: První liga 2 / Prvá liga II / Major League II (1994)   Ne september 18, 2011 7:12 pm

Prvá liga 2
Major League II
První liga 2


Komedie / Sportovní
USA, 1994, 101 min

Režie:David S. Ward
Hudba:Michel Colombier
Hrají:Charlie Sheen, Tom Berenger, Corbin Bernsen, Dennis Haysbert, Omar Epps, David Keith, Jason Kravits, Keith Johnson, Jesse Ventura, Richard Schiff, Randy Quaid, Michael Kelly, Rene Russo, Alison Doody, John Stewart, Bill McAdams Jr., Michael Willis, Susan Duvall, David Sherrill

Minulú sezónu Cleveland Indians vyhrali titul v divíznej súťaži, ale v americkej majstrovskej lige (ALCS) ich porazilo mužstvo Chicago White Sox. Úspech sezóny zmenil postoje všetkých hráčov, úspech im stúpol do hlavy. Ricky Wild Thing Vaughn (CHARLIE SHEEN) má pocit, že sa kamsi vytratilo jeho umenie superrýchlych odpalov, Pedro Cerrano (DENNIS HAYSBERT) zase podstúpi duchovnú konverziu, prejde od agresívneho voodoo k zmierujúcemu budhizmu, čo sa odrazí na strate jeho útočnej sily. Roger Dorn (CORBIN BERNSEN) odišiel do výslužby a od Rachel Phelpsovej

INFO:
kód:
Format                          : AVI
Format/Info                      : Audio Video Interleave
File size                        : 797 MiB
Duration                        : 1h 44mn
Overall bit rate                : 1 061 Kbps
Writing application              : VirtualDubMod 1.5.10.2 (build 2542/release)
Writing library                  : VirtualDubMod build 2542/release

Video
ID                              : 0
Format                          : MPEG-4 Visual
Format profile                  : Advanced Simple@L5
Format settings, BVOP            : 1
Format settings, QPel            : No
Format settings, GMC            : No warppoints
Format settings, Matrix          : Custom
Codec ID                        : XVID
Codec ID/Hint                    : XviD
Duration                        : 1h 44mn
Bit rate                        : 782 Kbps
Width                            : 672 pixels
Height                          : 384 pixels
Display aspect ratio            : 16:9
Frame rate                      : 23.976 fps
Color space                      : YUV
Chroma subsampling              : 4:2:0
Bit depth                        : 8 bits
Scan type                        : Progressive
Compression mode                : Lossy
Bits/(Pixel*Frame)              : 0.126
Stream size                      : 587 MiB (74%)
Writing library                  : XviD 1.2.0SMP (UTC 2006-01-08)

Audio #1
ID                              : 1
Format                          : MPEG Audio
Format version                  : Version 1
Format profile                  : Layer 3
Codec ID                        : 55
Codec ID/Hint                    : MP3
Duration                        : 1h 44mn
Bit rate mode                    : Constant
Bit rate                        : 128 Kbps
Channel(s)                      : 2 channels
Sampling rate                    : 48.0 KHz
Compression mode                : Lossy
Stream size                      : 96.1 MiB (12%)
Alignment                        : Aligned on interleaves
Interleave, duration            : 42 ms (1.00 video frame)
Interleave, preload duration    : 504 ms
Language                        : English

Audio #2
ID                              : 2
Format                          : MPEG Audio
Format version                  : Version 1
Format profile                  : Layer 3
Mode                            : Joint stereo
Mode extension                  : MS Stereo
Codec ID                        : 55
Codec ID/Hint                    : MP3
Duration                        : 1h 44mn
Bit rate mode                    : Variable
Bit rate                        : 134 Kbps
Nominal bit rate                : 144 Kbps
Channel(s)                      : 2 channels
Sampling rate                    : 48.0 KHz
Compression mode                : Lossy
Stream size                      : 101 MiB (13%)
Alignment                        : Aligned on interleaves
Interleave, duration            : 24 ms (0.58 video frame)
Interleave, preload duration    : 731 ms
DOWNLOAD:
kód:
http://www.upnito.sk/subor/e5c7bc87def238543ca489266046faf1.html

kód:
http://download.hellshare.sk/prvni-liga-2-1994-avi/3546383

PASS:
no
Návrat hore Goto down
Zobrazit informácie o autorovi http://warnerfilm.forumn.org
 
První liga 2 / Prvá liga II / Major League II (1994)
Zobraziť predchádzajúcu tému Zobraziť nasledujúcu tému Návrat hore 
Strana 1 z 1

Povolenie tohoto fóra:Nemôžete odpovedať na témy v tomto fóre.
Vsetko zadarmo :: .::Download filmy::. :: .::Filmy s ceskym a slovenskym dabingom::.-
Prejdi na: