Vsetko zadarmo

Vsetko zadarmo
 
DomovFAQHľadaťRegistráciaZoznam užívateľovUžívateľské skupinyPrihlásenie

Share | 
 

 První liga/ Prvá liga / Major League (1989)

Zobraziť predchádzajúcu tému Zobraziť nasledujúcu tému Goto down 
AutorSpráva
aismen
Mega Uploader
Mega Uploader


Počet príspevkov : 703
Registration date : 16.04.2008

OdoslaťPredmet: První liga/ Prvá liga / Major League (1989)   Ne september 18, 2011 7:10 pm

Prvá liga
Major League
První liga


Komedie / Sportovní
USA, 1989, 107 min

Režie:David S. Ward
Hudba:James Newton Howard
Hrají:Tom Berenger, Charlie Sheen, Corbin Bernsen, Rene Russo, Wesley Snipes, Dennis Haysbert, Charles Cyphers, Neil Flynn, F. Gary Gray, Chelcie Ross


V nejvyšší lize získávají hráči baseballu bohatství a slávu, někteří z nich se stávají legendami. Není tu místo pro nezkušené zelenáče nebo stárnoucí atlety. Snad kromě mužstva Clevelandu. Veterán baseballu se zdravotními problémy, podmínečně propuštěný mladistvý delikvent... V tomto roce možná ve výběru Clevelandských Indiánů nejsou hráči, v jaké clevelandští fanouškové vždycky doufali, ale je to skupina mužů, kteří jsou rozhodnuti vytěžit ze své šance co nejvíc. A s týmem, jako je tento, se může stát cokoliv.

INFO:
kód:
Format                          : AVI
Format/Info                      : Audio Video Interleave
File size                        : 800 MiB
Duration                        : 1h 46mn
Overall bit rate                : 1 049 Kbps
Writing application              : VirtualDubMod 1.5.10.2 (build 2542/release)
Writing library                  : VirtualDubMod build 2542/release

Video
ID                              : 0
Format                          : MPEG-4 Visual
Format profile                  : Advanced Simple@L5
Format settings, BVOP            : 1
Format settings, QPel            : No
Format settings, GMC            : No warppoints
Format settings, Matrix          : Custom
Codec ID                        : XVID
Codec ID/Hint                    : XviD
Duration                        : 1h 46mn
Bit rate                        : 775 Kbps
Width                            : 672 pixels
Height                          : 384 pixels
Display aspect ratio            : 16:9
Frame rate                      : 23.976 fps
Color space                      : YUV
Chroma subsampling              : 4:2:0
Bit depth                        : 8 bits
Scan type                        : Progressive
Compression mode                : Lossy
Bits/(Pixel*Frame)              : 0.125
Stream size                      : 591 MiB (74%)
Writing library                  : XviD 1.2.0SMP (UTC 2006-01-08)

Audio #1
ID                              : 1
Format                          : MPEG Audio
Format version                  : Version 1
Format profile                  : Layer 3
Codec ID                        : 55
Codec ID/Hint                    : MP3
Duration                        : 1h 46mn
Bit rate mode                    : Constant
Bit rate                        : 128 Kbps
Channel(s)                      : 2 channels
Sampling rate                    : 48.0 KHz
Compression mode                : Lossy
Stream size                      : 97.5 MiB (12%)
Alignment                        : Aligned on interleaves
Interleave, duration            : 42 ms (1.00 video frame)
Interleave, preload duration    : 504 ms
Language                        : CZ

Audio #2
ID                              : 2
Format                          : MPEG Audio
Format version                  : Version 1
Format profile                  : Layer 3
Mode                            : Joint stereo
Mode extension                  : MS Stereo
Codec ID                        : 55
Codec ID/Hint                    : MP3
Duration                        : 1h 46mn
Bit rate mode                    : Variable
Bit rate                        : 129 Kbps
Nominal bit rate                : 144 Kbps
Channel(s)                      : 2 channels
Sampling rate                    : 48.0 KHz
Compression mode                : Lossy
Stream size                      : 98.5 MiB (12%)
Alignment                        : Aligned on interleaves
Interleave, duration            : 24 ms (0.58 video frame)
Interleave, preload duration    : 142 ms
DOWNLOAD:
kód:
http://download.hellshare.sk/prvni-liga-1989-avi/3546395

kód:
http://www.upnito.sk/subor/11218149a41e934221c73373506cf99d.html

PASS:
no
Návrat hore Goto down
Zobrazit informácie o autorovi http://warnerfilm.forumn.org
 
První liga/ Prvá liga / Major League (1989)
Zobraziť predchádzajúcu tému Zobraziť nasledujúcu tému Návrat hore 
Strana 1 z 1

Povolenie tohoto fóra:Nemôžete odpovedať na témy v tomto fóre.
Vsetko zadarmo :: .::Download filmy::. :: .::Filmy s ceskym a slovenskym dabingom::.-
Prejdi na: