Vsetko zadarmo

Vsetko zadarmo
 
DomovFAQHľadaťRegistráciaZoznam užívateľovUžívateľské skupinyPrihlásenie

Share | 
 

 Planeta opic/Planet of the Apes(1968)

Zobraziť predchádzajúcu tému Zobraziť nasledujúcu tému Goto down 
AutorSpráva
aismen
Mega Uploader
Mega Uploader


Počet príspevkov : 703
Registration date : 16.04.2008

OdoslaťPredmet: Planeta opic/Planet of the Apes(1968)   Ne september 18, 2011 6:58 pm

Planéta opíc
Planet of the Apes
Planeta opic




Sci-Fi / Dobrodružný / Drama
USA, 1968, 112 min

Režie:Franklin J. Schaffner
Hudba:Jerry Goldsmith
Hrají:Charlton Heston, Roddy McDowall, Kim Hunter, Maurice Evans, James Whitmore, Linda Harrison, Robert Gunner, Lou Wagner, Jeff Burton, Buck Kartalian, Norman Burton, Felix Silla

Někde ve vesmíru přece musí být něco, co je lepší než člověk. Když se Charlton Heston a a další dva astronauti proberou z hluboké hybernace, zjistí, že jejich kosmická loď je zničena. Při útěku zjistí, že přistáli na planetě, na které žijí inteligentní opice. Heston je odchycen a uvězněn ve městě - zbytek posádky a později i několik opic se mu samozřejmě snaží pomoci z vězení uprchnout. To se nakonec podaří a všichni jsou volní, aby ale v samém závěru všichni zjistili strašnou věc...


INFO:
kód:
Format                          : AVI
Format/Info                      : Audio Video Interleave
File size                        : 700 MiB
Duration                        : 1h 47mn
Overall bit rate                : 911 Kbps
Writing application              : VirtualDubMod 1.5.4.1 (build 2178/release)
Writing library                  : VirtualDubMod build 2178/release

Video
ID                              : 0
Format                          : MPEG-4 Visual
Format profile                  : Advanced Simple@L5
Format settings, BVOP            : 1
Format settings, QPel            : No
Format settings, GMC            : No warppoints
Format settings, Matrix          : Custom
Codec ID                        : XVID
Codec ID/Hint                    : XviD
Duration                        : 1h 47mn
Bit rate                        : 794 Kbps
Width                            : 608 pixels
Height                          : 256 pixels
Display aspect ratio            : 2.40:1
Frame rate                      : 25.000 fps
Color space                      : YUV
Chroma subsampling              : 4:2:0
Bit depth                        : 8 bits
Scan type                        : Progressive
Compression mode                : Lossy
Bits/(Pixel*Frame)              : 0.204
Stream size                      : 611 MiB (87%)
Writing library                  : XviD 1.2.0.dev47 (UTC 2006-11-01)

Audio
ID                              : 1
Format                          : MPEG Audio
Format version                  : Version 1
Format profile                  : Layer 3
Mode                            : Joint stereo
Mode extension                  : MS Stereo
Codec ID                        : 55
Codec ID/Hint                    : MP3
Duration                        : 1h 47mn
Bit rate mode                    : Variable
Bit rate                        : 103 Kbps
Nominal bit rate                : 128 Kbps
Channel(s)                      : 2 channels
Sampling rate                    : 48.0 KHz
Compression mode                : Lossy
Stream size                      : 79.4 MiB (11%)
Alignment                        : Aligned on interleaves
Interleave, duration            : 24 ms (0.60 video frame)
Interleave, preload duration    : 178 ms
Writing library                  : LAME3.97
Encoding settings                : -m j -V 4 -q 2 -lowpass 17 --abr 128
Language                        : Czech
DOWNLOAD:
kód:
http://download.hellshare.sk/i-planeta-opic-1968-avi/3523828

kód:
http://www.upnito.sk/subor/a9e8ed6e5aba1b3ec2466867a442228c.html

PASS:
no
Návrat hore Goto down
Zobrazit informácie o autorovi http://warnerfilm.forumn.org
 
Planeta opic/Planet of the Apes(1968)
Zobraziť predchádzajúcu tému Zobraziť nasledujúcu tému Návrat hore 
Strana 1 z 1

Povolenie tohoto fóra:Nemôžete odpovedať na témy v tomto fóre.
Vsetko zadarmo :: .::Download filmy::. :: .::Filmy s ceskym a slovenskym dabingom::.-
Prejdi na: