Vsetko zadarmo

Vsetko zadarmo
 
DomovFAQHľadaťRegistráciaZoznam užívateľovUžívateľské skupinyPrihlásenie

Share | 
 

 Plán hry / The Game Plan (2007)

Zobraziť predchádzajúcu tému Zobraziť nasledujúcu tému Goto down 
AutorSpráva
aismen
Mega Uploader
Mega Uploader


Počet príspevkov : 703
Registration date : 16.04.2008

OdoslaťPredmet: Plán hry / The Game Plan (2007)   Ne september 18, 2011 6:56 pm

Plán hry
Game Plan, The
Plán hry


Komedie / Rodinný / Sportovní
USA, 2007, 105 min

http://www.csfd.cz/film/230587-plan-hry/

Režie:Andy Fickman
Hrají:Dwayne Johnson, Madison Pettis, Roselyn Sanchez, Kyra Sedgwick, Brian J. White, Hayes MacArthur, Morris Chestnut, Kate Nauta, Paige Turco, Jamal Duff, Robert Torti, Christine Lakin, Dan Marshall, Robert Masiello, James Ryen

Joe Kingman je ten nejtvrdší hráč amerického fotbalu, jakého si umíte představit. Má slávu, respekt spoluhráčů, vypracované svaly a ženy po něm šílí - včetně jisté docela malé dívenky jménem Payton, která mu jednoho dne zazvoní na dveře a představí se docela nezvyklou větou: Jsem tvoje dcera. A jak už to tak nejen v amerických filmových komediích bývá, od toho okamžiku už nic nebude jako dřív...

INFO:
kód:
Format                          : AVI
Format/Info                      : Audio Video Interleave
File size                        : 700 MiB
Duration                        : 1h 43mn
Overall bit rate                : 947 Kbps
Writing application              : VirtualDubMod 1.5.4.1 (build 2178/release)
Writing library                  : VirtualDubMod build 2178/release

Video
ID                              : 0
Format                          : MPEG-4 Visual
Format profile                  : Advanced Simple@L5
Format settings, BVOP            : 1
Format settings, QPel            : No
Format settings, GMC            : No warppoints
Format settings, Matrix          : Custom
Codec ID                        : XVID
Codec ID/Hint                    : XviD
Duration                        : 1h 43mn
Bit rate                        : 821 Kbps
Width                            : 640 pixels
Height                          : 272 pixels
Display aspect ratio            : 2.35:1
Frame rate                      : 25.000 fps
Color space                      : YUV
Chroma subsampling              : 4:2:0
Bit depth                        : 8 bits
Scan type                        : Progressive
Compression mode                : Lossy
Bits/(Pixel*Frame)              : 0.189
Stream size                      : 607 MiB (87%)
Writing library                  : XviD 1.2.1 (UTC 2008-12-04)

Audio
ID                              : 1
Format                          : MPEG Audio
Format version                  : Version 1
Format profile                  : Layer 3
Mode                            : Joint stereo
Codec ID                        : 55
Codec ID/Hint                    : MP3
Duration                        : 1h 43mn
Bit rate mode                    : Variable
Bit rate                        : 113 Kbps
Nominal bit rate                : 128 Kbps
Channel(s)                      : 2 channels
Sampling rate                    : 48.0 KHz
Compression mode                : Lossy
Stream size                      : 83.5 MiB (12%)
Alignment                        : Aligned on interleaves
Interleave, duration            : 24 ms (0.60 video frame)
Interleave, preload duration    : 582 ms
Writing library                  : LAME3.98r
Encoding settings                : -m j -V 4 -q 2 -lowpass 17 --abr 128
Language                        : Czech

DOWNLOAD:

hellshare

kód:
http://download.hellshare.sk/plan-hry-avi/3587384

upnito.sk

kód:
http://www.upnito.sk/subor/16ed55da5965ffa32cd16f76b86f7391.html

quickshare.cz
kód:
http://www.quickshare.cz/stahnout-soubor/605285:plan-hry-avi_700MB

PASS:no
Návrat hore Goto down
Zobrazit informácie o autorovi http://warnerfilm.forumn.org
 
Plán hry / The Game Plan (2007)
Zobraziť predchádzajúcu tému Zobraziť nasledujúcu tému Návrat hore 
Strana 1 z 1

Povolenie tohoto fóra:Nemôžete odpovedať na témy v tomto fóre.
Vsetko zadarmo :: .::Download filmy::. :: .::Filmy s ceskym a slovenskym dabingom::.-
Prejdi na: