Vsetko zadarmo

Vsetko zadarmo
 
DomovFAQHľadaťRegistráciaZoznam užívateľovUžívateľské skupinyPrihlásenie

Share | 
 

 Pieseň pre nevestu/Wedding Singer, The(1998)

Zobraziť predchádzajúcu tému Zobraziť nasledujúcu tému Goto down 
AutorSpráva
aismen
Mega Uploader
Mega Uploader


Počet príspevkov : 703
Registration date : 16.04.2008

OdoslaťPredmet: Pieseň pre nevestu/Wedding Singer, The(1998)   Ne september 18, 2011 6:55 pm

Pieseň pre nevestu
Wedding Singer, The
Píseň pro nevěstu


Komedie / Romantický / Hudební
USA, 1998, 95 min

Režie:Frank Coraci
Hudba:Teddy Castellucci
Hrají:Adam Sandler, Drew Barrymore, Christine Taylor, Allen Covert, Angela Featherstone, Alexis Arquette, Kevin Nealon, Phyllis Alia, Steven Brill, Steve Buscemi, Jon Lovitz, Shanna Moakler, Billy Idol, Brian Posehn, Peter Dante, Christina Pickles, Teddy Castellucci

Boli to časy, v ktorých bol internet ešte len v plienkach a o mobliných telefónoch ste mohli iba snívať. Písal sa rok 1985. A aj keď si to niektorí z vás nemôžu pamätať, môžete sa spoľahnúť na to, že aj vtedy ľudia vedeli, čo to znamená urobiť si dobrú párty. Presne tým sa živí aj Robbie (Adam Sandler). Okrem toho, že vie namiešať tú správnu hudbu na svadby a iné oslavy podobného druhu, vie veľmi dobre aj to, čo kedy povedať tak, aby zábava čo najlepšie gradovala. Podobným talentom sa môže popýšiť aj Julia (Drew Barrymore), ktorá pre zmenu na podobných oslavách dokáže namiešať tie správne nápoje. Z času na čas o seba zavadia pohľadom a prehodia pár slov, ale to je tak asi všetko. Keď však obaja nadviažu nové nádejné vzťahy a plány pokročia tak ďalej, že sa schyľuje k uzavretiu manželstiev, začína ísť do tuhého. Zdá sa totiž, že sa niekde stala chyba. Zistiť pred oltárom, že stojíte vedľa nepravého nie je práve ideálne. Ak však poznáte vhodnú alternatívu, ste ten najšťastnejší človek na svete. Zostáva iba nájsť riešenie, ako z toho vykľučkovať...

INFO:
kód:
Format                          : AVI
Format/Info                      : Audio Video Interleave
File size                        : 684 MiB
Duration                        : 1h 32mn
Overall bit rate                : 1 031 Kbps
Movie name                      : The Wedding Singer - (1998)
Director                        : [BeRRa]
Subject                          : The Wedding Singer - (1998)
Writing application              : VirtualDubMod 1.5.4.1 (build 2066/release)
Writing library                  : VirtualDubMod build 2066/release

Video
ID                              : 0
Format                          : MPEG-4 Visual
Format settings, BVOP            : No
Format settings, QPel            : No
Format settings, GMC            : No warppoints
Format settings, Matrix          : Default (H.263)
Codec ID                        : XVID
Codec ID/Hint                    : XviD
Duration                        : 1h 32mn
Bit rate                        : 893 Kbps
Width                            : 544 pixels
Height                          : 304 pixels
Display aspect ratio            : 16:9
Frame rate                      : 25.000 fps
Color space                      : YUV
Chroma subsampling              : 4:2:0
Bit depth                        : 8 bits
Scan type                        : Progressive
Compression mode                : Lossy
Bits/(Pixel*Frame)              : 0.216
Stream size                      : 593 MiB (87%)

Audio
ID                              : 1
Format                          : MPEG Audio
Format version                  : Version 1
Format profile                  : Layer 3
Mode                            : Joint stereo
Mode extension                  : MS Stereo
Codec ID                        : 55
Codec ID/Hint                    : MP3
Duration                        : 1h 32mn
Bit rate mode                    : Constant
Bit rate                        : 128 Kbps
Channel(s)                      : 2 channels
Sampling rate                    : 48.0 KHz
Compression mode                : Lossy
Delay relative to video          : 2s 720ms
Stream size                      : 84.8 MiB (12%)
Alignment                        : Split accross interleaves
Interleave, duration            : 40 ms (1.00 video frame)
Interleave, preload duration    : 500 ms
DOWNLOAD:
kód:
http://www.upnito.sk/subor/c2d5b843c8b17956eb6a3a4feb5f6969.html
PASS:
no
Návrat hore Goto down
Zobrazit informácie o autorovi http://warnerfilm.forumn.org
 
Pieseň pre nevestu/Wedding Singer, The(1998)
Zobraziť predchádzajúcu tému Zobraziť nasledujúcu tému Návrat hore 
Strana 1 z 1

Povolenie tohoto fóra:Nemôžete odpovedať na témy v tomto fóre.
Vsetko zadarmo :: .::Download filmy::. :: .::Filmy s ceskym a slovenskym dabingom::.-
Prejdi na: