Vsetko zadarmo

Vsetko zadarmo
 
DomovFAQHľadaťRegistráciaZoznam užívateľovUžívateľské skupinyPrihlásenie

Share | 
 

 Paul (2011)

Zobraziť predchádzajúcu tému Zobraziť nasledujúcu tému Goto down 
AutorSpráva
aismen
Mega Uploader
Mega Uploader


Počet príspevkov : 703
Registration date : 16.04.2008

OdoslaťPredmet: Paul (2011)   Ne september 18, 2011 6:51 pm

Paul
Paul
Paul


Komedie / Sci-Fi / Dobrodružný
Velká Británie, 2011, 104 min

Režie:Greg Mottola
Hudba:David Arnold
Hrají:Simon Pegg, Nick Frost, Seth Rogen, Jason Bateman, Bill Hader, Jane Lynch, Kristen Wiig, Jeffrey Tambor, Blythe Danner, David Koechner, John Carroll Lynch, Sigourney Weaver, Mia Stallard

http://www.csfd.cz/film/250239-paul/

Graeme (Simon Pegg) a Clive (Nick Frost) přijeli do Ameriky na dovolenou, během níž chtěli procestovat všechna místa proslulá údajným výskytem UFO. Cesta probíhala podle plánu, dokud nenarazili na titulního hrdinu. Byť jako všichni správní ufologové v existenci mimozemšťanů bezmezně věřili, Paul je poněkud zaskočil. Přestože vypadá jako typický „emzák“, chová se jako zastydlý puberťák, tedy úplně stejně jako Graeme a Clive, jen s kapkou americké suverénnosti navíc. Po počátečním oťukávání zjistí, že si navzájem docela rozumějí, takže Graeme a Clive Paulovi nabídnou, že ho odvezou na místo „kdesi mezi lesy“, kam si pro něj přiletí jeho soukmenovci. Kamarádskou idylu bohužel vážně narušují dvě externí hrozby. Když vám zdrhne mimozemšťan, tak se ho snažíte dostat za každou cenu, což je úkolem agenta tajné vládní agentury (Jason Bateman), který má k ruce dva neschopné poskoky a zpruzenou šéfku na telefonu. Nebezpečí číslo dvě pak představuje nerudný náboženský fanatik, jemuž naše trojka nedopatřením unesla celkem rajcovní dceru (Kristen Wiig), a on se ji snaží získat zpět s pomocí nabité kulovnice.

INFO:
kód:
Format                          : AVI
Format/Info                      : Audio Video Interleave
File size                        : 897 MiB
Duration                        : 1h 43mn
Overall bit rate                : 1 210 Kbps
Writing application              : VirtualDubMod 1.5.10.2 (build 2540/release)
Writing library                  : VirtualDubMod build 2540/release

Video
ID                              : 0
Format                          : MPEG-4 Visual
Format profile                  : Advanced Simple@L5
Format settings, BVOP            : 2
Format settings, QPel            : No
Format settings, GMC            : No warppoints
Format settings, Matrix          : Default (H.263)
Codec ID                        : XVID
Codec ID/Hint                    : XviD
Duration                        : 1h 43mn
Bit rate                        : 1 073 Kbps
Width                            : 640 pixels
Height                          : 272 pixels
Display aspect ratio            : 2.35:1
Frame rate                      : 23.976 fps
Color space                      : YUV
Chroma subsampling              : 4:2:0
Bit depth                        : 8 bits
Scan type                        : Progressive
Compression mode                : Lossy
Bits/(Pixel*Frame)              : 0.257
Stream size                      : 795 MiB (89%)
Writing library                  : XviD 1.2.1 (UTC 2008-12-04)

Audio
ID                              : 1
Format                          : MPEG Audio
Format version                  : Version 1
Format profile                  : Layer 3
Mode                            : Joint stereo
Codec ID                        : 55
Codec ID/Hint                    : MP3
Duration                        : 1h 43mn
Bit rate mode                    : Constant
Bit rate                        : 128 Kbps
Channel(s)                      : 2 channels
Sampling rate                    : 48.0 KHz
Compression mode                : Lossy
Delay relative to video          : 24ms
Stream size                      : 94.9 MiB (11%)
Alignment                        : Aligned on interleaves
Interleave, duration            : 42 ms (1.00 video frame)
Interleave, preload duration    : 504 ms

DOWNLOAD:

hellshare

kód:
http://download.hellshare.sk/paul-2011-avi/3611849

upnito.sk

kód:
http://www.upnito.sk/subor/81556058937e7b0c2e090556632fa66a.html

quickshare.cz
kód:
http://www.quickshare.cz/stahnout-soubor/608020:paul-2011-avi_897MB

PASS:no
Návrat hore Goto down
Zobrazit informácie o autorovi http://warnerfilm.forumn.org
 
Paul (2011)
Zobraziť predchádzajúcu tému Zobraziť nasledujúcu tému Návrat hore 
Strana 1 z 1

Povolenie tohoto fóra:Nemôžete odpovedať na témy v tomto fóre.
Vsetko zadarmo :: .::Download filmy::. :: .::Filmy s ceskym a slovenskym dabingom::.-
Prejdi na: