Vsetko zadarmo

Vsetko zadarmo
 
DomovFAQHľadaťRegistráciaZoznam užívateľovUžívateľské skupinyPrihlásenie

Share | 
 

 SetUp (2011)

Zobraziť predchádzajúcu tému Zobraziť nasledujúcu tému Goto down 
AutorSpráva
aismen
Mega Uploader
Mega Uploader


Počet príspevkov : 703
Registration date : 16.04.2008

OdoslaťPredmet: SetUp (2011)   Ne september 18, 2011 6:48 pm

Setup

Akční / Krimi / Drama
USA, 2011, 90 min

http://www.csfd.cz/film/289460-setup/diskuze/

Režie:Mike Gunther
Hrají:Bruce Willis, Ryan Phillippe, Mischa Barton, Jenna Dewan, James Remar, Curtis "50 Cent" Jackson, Randy Couture, Shaun Toub, Jerry Ferrara, Will Yun Lee, Jay Karnes, Susie Abromeit, Ambyr Childers

Skupina priateľov sa zapletie do nebezpečnej diamantovej lúpeže, z ktorej sa nemusia dostať živí.

INFO:
kód:
Format                          : AVI
Format/Info                      : Audio Video Interleave
File size                        : 1.08 GiB
Duration                        : 1h 25mn
Overall bit rate                : 1 806 Kbps

Video
ID                              : 0
Format                          : MPEG-4 Visual
Format profile                  : Advanced Simple@L5
Format settings, BVOP            : 2
Format settings, QPel            : No
Format settings, GMC            : No warppoints
Format settings, Matrix          : Default (H.263)
Codec ID                        : XVID
Codec ID/Hint                    : XviD
Duration                        : 1h 25mn
Bit rate                        : 1 349 Kbps
Width                            : 720 pixels
Height                          : 304 pixels
Display aspect ratio            : 2.35:1
Frame rate                      : 23.976 fps
Color space                      : YUV
Chroma subsampling              : 4:2:0
Bit depth                        : 8 bits
Scan type                        : Progressive
Compression mode                : Lossy
Bits/(Pixel*Frame)              : 0.257
Stream size                      : 823 MiB (75%)
Writing library                  : XviD 1.2.1 (UTC 2008-12-04)

Audio
ID                              : 1
Format                          : AC-3
Format/Info                      : Audio Coding 3
Mode extension                  : CM (complete main)
Codec ID                        : 2000
Duration                        : 1h 25mn
Bit rate mode                    : Constant
Bit rate                        : 448 Kbps
Channel(s)                      : 6 channels
Channel positions                : Front: L C R, Side: L R, LFE
Sampling rate                    : 48.0 KHz
Bit depth                        : 16 bits
Compression mode                : Lossy
Stream size                      : 273 MiB (25%)
Alignment                        : Aligned on interleaves
Interleave, duration            : 42 ms (1.00 video frame)

DOWNLOAD:

hellshare

kód:
http://download.hellshare.sk/set-up-eng-avi/3568637

ulozto.sk

kód:
http://www.ulozto.sk/10231380/set-up-eng-avi

quickshare.cz
kód:
http://www.quickshare.cz/stahnout-soubor/603627:set-up-eng-avi_1102MB

PASS:no
Návrat hore Goto down
Zobrazit informácie o autorovi http://warnerfilm.forumn.org
 
SetUp (2011)
Zobraziť predchádzajúcu tému Zobraziť nasledujúcu tému Návrat hore 
Strana 1 z 1

Povolenie tohoto fóra:Nemôžete odpovedať na témy v tomto fóre.
Vsetko zadarmo :: .::Download filmy::. :: .::Zahranicna tvorba::.-
Prejdi na: