Vsetko zadarmo

Vsetko zadarmo
 
DomovFAQHľadaťRegistráciaZoznam užívateľovUžívateľské skupinyPrihlásenie

Share | 
 

 Obecná škola (1991)

Zobraziť predchádzajúcu tému Zobraziť nasledujúcu tému Goto down 
AutorSpráva
aismen
Mega Uploader
Mega Uploader


Počet príspevkov : 703
Registration date : 16.04.2008

OdoslaťPredmet: Obecná škola (1991)   Ne september 18, 2011 6:46 pm

Obecná škola
Elementary School, The


Drama / Komedie
Československo, 1991, 97 min

http://www.csfd.cz/film/8806-obecna-skola/

Režie:Jan Svěrák
Hudba:Jiří Svoboda
Hrají:Jan Tříska, Zdeněk Svěrák, Libuše Šafránková, Rudolf Hrušínský, Radoslav Budáč, Irena Pavlásková, Ondřej Vetchý, Daniela Kolářová, Eva Holubová, Rudolf Hrušínský ml., Petr Čepek, Bolek Polívka, Zdeněk Mucha, Oldřich Vlach, Petr Brukner, Karla Chadimová, Bořivoj Penc, Jiří Menzel, Karel Kachyňa, Václav Chalupa, Stanislav Hájek, Václav Jakoubek, Miroslava Pleštilová, Alice Šnirychová - Dvořáková, Michal Škrabal, Viktor Nejedlý, Martin Janda, Tat'ána Puttová, Ladislav Chroust, Rudolf Hammer, Tomáš Procházka, Pavel Kučera, Karel Kmoch

Je krátce po válce a do chlapecké třídy jedné ze škol na předměststí Prahy chodí také desetiletý Eda Souček se svým kamarádem Tondou. Stejně jako ostatní spolužáci, také Eda s Tondou zcela ignorují pokusy rezignované učitelky Maxové o výuku a spíš než o učivo se zajímají o barvu jejích kalhotek. Není divu, že se učitelka jednoho dne zblázní a na její místo nastoupí nový učitel. Jmenuje se Igor Hnízdo a vymyká se všem učitelům, které kluci do té doby poznali. Chodí ve vojenské uniformě, na opasku má opravdovou pistoli a okamžitě zavede ve třídě tuhý režim, jehož součástí jsou také velmi svižná rákoska a poutavá vyprávění o válečných zážitcích, kterými učitel prokládá probíranou učební látku. Přestože jsou jeho metody nečekaně účinné, začnou se velmi brzy na učitelem stahovat mraky. Nejenže někteří tak úplně nevěří jeho hrdinským historkám, ale navíc se začne projevovat jeho slabost pro něžné pohlaví. Zhrzená tramvajákova manželka, kterou Hnízdo opustí kvůli koketním studentkám, dvojčatům Fabiánovým, totiž napíše udání a učiteli hrozí trest za mravní delikt. Přestože se Eda stejně jako ostatní postaví za svého oblíbeného učitele, začíná si uvědomovat, že tím pravým hrdinou pro něj ve skutečnosti není okázale hrdinský učitel, ale jeho puntičkářský tatínek Fanouš Souček, se svým nenápadným, všedním přesto však skutečným hrdinstvím.

INFO:
kód:
Format                          : AVI
Format/Info                      : Audio Video Interleave
File size                        : 700 MiB
Duration                        : 1h 36mn
Overall bit rate                : 1 013 Kbps
Writing application              : VirtualDubMod 1.5.4.1 (build 2178/release)
Writing library                  : VirtualDubMod build 2178/release

Video
ID                              : 0
Format                          : MPEG-4 Visual
Format profile                  : Advanced Simple@L5
Format settings, BVOP            : 1
Format settings, QPel            : No
Format settings, GMC            : No warppoints
Format settings, Matrix          : Custom
Codec ID                        : XVID
Codec ID/Hint                    : XviD
Duration                        : 1h 36mn
Bit rate                        : 915 Kbps
Width                            : 640 pixels
Height                          : 400 pixels
Display aspect ratio            : 1.600
Frame rate                      : 25.000 fps
Color space                      : YUV
Chroma subsampling              : 4:2:0
Bit depth                        : 8 bits
Scan type                        : Progressive
Compression mode                : Lossy
Bits/(Pixel*Frame)              : 0.143
Stream size                      : 632 MiB (90%)
Writing library                  : XviD 1.2.0.dev47 (UTC 2006-11-01)

Audio
ID                              : 1
Format                          : MPEG Audio
Format version                  : Version 1
Format profile                  : Layer 3
Mode                            : Joint stereo
Mode extension                  : MS Stereo
Codec ID                        : 55
Codec ID/Hint                    : MP3
Duration                        : 1h 36mn
Bit rate mode                    : Variable
Bit rate                        : 85.5 Kbps
Nominal bit rate                : 128 Kbps
Channel(s)                      : 2 channels
Sampling rate                    : 48.0 KHz
Compression mode                : Lossy
Stream size                      : 59.1 MiB (8%)
Alignment                        : Aligned on interleaves
Interleave, duration            : 24 ms (0.60 video frame)
Interleave, preload duration    : 507 ms
Writing library                  : LAME3.97b
Encoding settings                : -m j -V 4 -q 2 -lowpass 17 --abr 128
Language                        : Czech

DOWNLOAD:

hellshare

kód:
http://download.hellshare.sk/obecna-skola-avi/3587369

upnito.sk

kód:
http://www.upnito.sk/subor/d64b4415a910e6c4c9b9302de1af08f4.html

quickshare.cz
kód:
http://www.quickshare.cz/stahnout-soubor/605282:obecna-skola-avi_700MB

PASS:no
Návrat hore Goto down
Zobrazit informácie o autorovi http://warnerfilm.forumn.org
 
Obecná škola (1991)
Zobraziť predchádzajúcu tému Zobraziť nasledujúcu tému Návrat hore 
Strana 1 z 1

Povolenie tohoto fóra:Nemôžete odpovedať na témy v tomto fóre.
Vsetko zadarmo :: .::Download filmy::. :: .::Filmy s ceskym a slovenskym dabingom::.-
Prejdi na: