Vsetko zadarmo

Vsetko zadarmo
 
DomovFAQHľadaťRegistráciaZoznam užívateľovUžívateľské skupinyPrihlásenie

Share | 
 

 Noci v Harlemu / Harlemské noci / Harlem Nights (1989)

Zobraziť predchádzajúcu tému Zobraziť nasledujúcu tému Goto down 
AutorSpráva
aismen
Mega Uploader
Mega Uploader


Počet príspevkov : 703
Registration date : 16.04.2008

OdoslaťPredmet: Noci v Harlemu / Harlemské noci / Harlem Nights (1989)   Ne september 18, 2011 6:45 pm

Harlemské noci
Harlem Nights
Noci v Harlemu


Komedie / Krimi / Drama / Romantický
USA, 1989, 110 min

http://www.csfd.cz/film/14994-noci-v-harlemu/

Režie:Eddie Murphy
Hrají:Eddie Murphy, Richard Pryor, Danny Aiello, Michael Lerner, Della Reese, Stan Shaw, Lela Rochon, David Marciano, Arsenio Hall, Charles Q. Murphy, Jasmine Guy, Miguel A. Núńez Jr., Reynaldo Rey, Ty Granderson Jones, Nona Gaye

Eddie Murphy a Richard Pryor zvádzajú nerovný boj s mafiou. Kriminálne ladený film, odohrávajúci sa v nočných harlemských kluboch. Vlastniť známu reštauráciu, herňu či bar – to je sen nejedného podnikavého muža. Sugar Ray (Richard Pryor) mal to veľké šťastie, že si v rodnom černošskom mestečku Harlem otvoril vlastný podnik. Tu si žil roky spokojne so svojím adoptívnym synom Quickom. Jedného dňa začne mať o jeho úspešné ilegálne kasíno záujem gangster Bugsy Calhoune, ktorý sa vôbec netají tým, že na jeho získanie použije akékoľvek prostriedky. Triezvo uvažujúci Ray s Quickom (Eddie Murphy) a partiou zamestnancov vymyslia plán, ako Calhouna prekabátiť a zároveň vyviaznuť so zdravou kožou

INFO:
kód:
Format                          : AVI
Format/Info                      : Audio Video Interleave
File size                        : 717 MiB
Duration                        : 1h 50mn
Overall bit rate                : 903 Kbps
Writing application              : MEncoder Sherpya-SVN-r32492-4.2.5
Writing library                  : MPlayer

Video
ID                              : 0
Format                          : MPEG-4 Visual
Format profile                  : Simple@L3
Format settings, BVOP            : No
Format settings, QPel            : No
Format settings, GMC            : No warppoints
Format settings, Matrix          : Default (H.263)
Codec ID                        : XVID
Codec ID/Hint                    : XviD
Duration                        : 1h 50mn
Bit rate                        : 768 Kbps
Width                            : 624 pixels
Height                          : 352 pixels
Display aspect ratio            : 16:9
Frame rate                      : 25.000 fps
Color space                      : YUV
Chroma subsampling              : 4:2:0
Bit depth                        : 8 bits
Scan type                        : Progressive
Compression mode                : Lossy
Bits/(Pixel*Frame)              : 0.140
Stream size                      : 609 MiB (85%)
Writing library                  : XviD 1.2.1 (UTC 2008-12-04)

Audio
ID                              : 1
Format                          : MPEG Audio
Format version                  : Version 1
Format profile                  : Layer 3
Mode                            : Joint stereo
Mode extension                  : MS Stereo
Codec ID                        : 55
Codec ID/Hint                    : MP3
Duration                        : 1h 50mn
Bit rate mode                    : Variable
Bit rate                        : 122 Kbps
Channel(s)                      : 2 channels
Sampling rate                    : 44.1 KHz
Compression mode                : Lossy
Stream size                      : 97.2 MiB (14%)
Alignment                        : Aligned on interleaves
Interleave, duration            : 26 ms (0.65 video frame)
Interleave, preload duration    : 531 ms

DOWNLOAD:

hellshare

kód:
http://download.hellshare.sk/noci-v-harlemu-1989-avi/3587356

upnito.sk

kód:
http://www.upnito.sk/subor/775a29657708c8a21fe24fecf75b929d.html

quickshare.cz
kód:
http://www.quickshare.cz/stahnout-soubor/605279:noci-v-harlemu-1989-avi_717MB

PASS:no
Návrat hore Goto down
Zobrazit informácie o autorovi http://warnerfilm.forumn.org
 
Noci v Harlemu / Harlemské noci / Harlem Nights (1989)
Zobraziť predchádzajúcu tému Zobraziť nasledujúcu tému Návrat hore 
Strana 1 z 1

Povolenie tohoto fóra:Nemôžete odpovedať na témy v tomto fóre.
Vsetko zadarmo :: .::Download filmy::. :: .::Filmy s ceskym a slovenskym dabingom::.-
Prejdi na: