Vsetko zadarmo

Vsetko zadarmo
 
DomovFAQHľadaťRegistráciaZoznam užívateľovUžívateľské skupinyPrihlásenie

Share | 
 

 Noc je ještě mladá / Take Me Home Tonight (2011)

Zobraziť predchádzajúcu tému Zobraziť nasledujúcu tému Goto down 
AutorSpráva
aismen
Mega Uploader
Mega Uploader


Počet príspevkov : 703
Registration date : 16.04.2008

OdoslaťPredmet: Noc je ještě mladá / Take Me Home Tonight (2011)   Ne september 18, 2011 6:44 pm

Take Me Home Tonight
Noc je ještě mladá


Komedie / Drama
USA / Německo, 2011, 97 min

http://www.csfd.cz/film/288891-take-me-home-tonight/

Režie:Michael Dowse
Hrají:Anna Faris, Teresa Palmer, Michelle Trachtenberg, Topher Grace, Michael Biehn, Chris Pratt, Lucy Punch, Dan Fogler, Nathalie Kelley, Robert Hoffman, Seth Gabel, Michael Ian Black, Candace Kroslak, Angie Everhart

Je rok 1988, Matt (Topher Grace) práve zmaturoval, a kedže nevie, čo daľej so životom, pracuje v obchode s filmami. Jedného dňa stretáva Torri (Teresa Palmer), dievča svojich snov zo strednej a dozvedá sa o párty, na ktorej budú všetci - vrátane Torri. Matt, jeho sestra Wendy (Anna Faris) a ich najlepší kamoš Barry (Dan Fogler) sa vydávajú na šialenú jazdu, na ktorej sa budú musieť vysporiadať s radom bláznivých, ako aj vážnych situácií.

INFO:
kód:
Format                          : AVI
Format/Info                      : Audio Video Interleave
File size                        : 693 MiB
Duration                        : 1h 37mn
Overall bit rate                : 996 Kbps
Writing application              : VirtualDubMod 1.5.10.2 (build 2540/release)
Writing library                  : VirtualDubMod build 2540/release

Video
ID                              : 0
Format                          : MPEG-4 Visual
Format profile                  : Advanced Simple@L5
Format settings, BVOP            : 2
Format settings, QPel            : No
Format settings, GMC            : No warppoints
Format settings, Matrix          : Default (H.263)
Muxing mode                      : Packed bitstream
Codec ID                        : XVID
Codec ID/Hint                    : XviD
Duration                        : 1h 37mn
Bit rate                        : 859 Kbps
Width                            : 640 pixels
Height                          : 272 pixels
Display aspect ratio            : 2.35:1
Frame rate                      : 23.976 fps
Color space                      : YUV
Chroma subsampling              : 4:2:0
Bit depth                        : 8 bits
Scan type                        : Progressive
Compression mode                : Lossy
Bits/(Pixel*Frame)              : 0.206
Stream size                      : 598 MiB (86%)
Writing library                  : XviD 1.2.1 (UTC 2008-12-04)

Audio
ID                              : 1
Format                          : MPEG Audio
Format version                  : Version 1
Format profile                  : Layer 3
Mode                            : Joint stereo
Codec ID                        : 55
Codec ID/Hint                    : MP3
Duration                        : 1h 37mn
Bit rate mode                    : Constant
Bit rate                        : 128 Kbps
Channel(s)                      : 2 channels
Sampling rate                    : 48.0 KHz
Compression mode                : Lossy
Delay relative to video          : 24ms
Stream size                      : 89.1 MiB (13%)
Alignment                        : Aligned on interleaves
Interleave, duration            : 42 ms (1.00 video frame)
Interleave, preload duration    : 504 ms

DOWNLOAD:

helhellshare.sk

kód:
helhttp://download.hellshare.sk/noc-je-este-mlada-avi/3570703lshare

upnito.sk

kód:
http://www.upnito.sk/subor/6a584fa0287afef46f7cab845fef4afc.html

ulozto.sk

kód:
http://www.ulozto.sk/10233753/noc-je-este-mlada-avi

rapidshare.com

kód:
https://rapidshare.com/files/1549821975/Noc_je_ešte_mlada.avi

quickshare.cz
kód:
http://www.quickshare.cz/stahnout-soubor/603814:noc-je-este-mlada-avi_693MB

PASS:no
Návrat hore Goto down
Zobrazit informácie o autorovi http://warnerfilm.forumn.org
 
Noc je ještě mladá / Take Me Home Tonight (2011)
Zobraziť predchádzajúcu tému Zobraziť nasledujúcu tému Návrat hore 
Strana 1 z 1

Povolenie tohoto fóra:Nemôžete odpovedať na témy v tomto fóre.
Vsetko zadarmo :: .::Download filmy::. :: .::Filmy s ceskym a slovenskym dabingom::.-
Prejdi na: