Vsetko zadarmo

Vsetko zadarmo
 
DomovFAQHľadaťRegistráciaZoznam užívateľovUžívateľské skupinyPrihlásenie

Share | 
 

 Neznámý / Unknown (2011)

Zobraziť predchádzajúcu tému Zobraziť nasledujúcu tému Goto down 
AutorSpráva
aismen
Mega Uploader
Mega Uploader


Počet príspevkov : 703
Registration date : 16.04.2008

OdoslaťPredmet: Neznámý / Unknown (2011)   Ne september 18, 2011 6:39 pm

Neznámy
Unknown
Neznámý


Drama / Thriller / Mysteriózní
USA / Velká Británie / Německo / Francie, 2011, 113 min

http://www.csfd.cz/film/264157-neznamy/

Režie:Jaume Collet-Serra
Hudba:John Ottman
Hrají:Liam Neeson, Diane Kruger, January Jones, Aidan Quinn, Bruno Ganz, Frank Langella, Sebastian Koch, Stipe Erceg, Rainer Bock, Mido Hamada, Karl Markovics, Rainer Sellien, Petra Schmidt-Schaller

Dr. Martin Harris (Liam Neeson) se probere z komatu po autohavarii v Berlíně a zjistí, že ho jeho vlastní žena (January Jones) vůbec nepoznává a jeho identitu si přivlastnil úplně cizí muž (Aidan Quinn). Úřady, které mu nevěří, ho naprosto ignorují. Pronásledují ho tajemní nájemní vrazi a on je sám, unavený, na útěku. S pomocí nečekaného spojence (Diane Kruger) se po hlavě vrhá do smrtelné záhady, která ho přinutí pochybovat nejen o jeho příčetnosti a identitě ale i o tom, jak daleko je schopný zajít, aby odkryl pravdu.

INFO:
kód:
Format                          : AVI
Format/Info                      : Audio Video Interleave
File size                        : 696 MiB
Duration                        : 1h 53mn
Overall bit rate                : 860 Kbps
Writing application              : VirtualDubMod 1.5.10.1 (build 2424/release)
Writing library                  : VirtualDubMod build 2424/release

Video
ID                              : 0
Format                          : MPEG-4 Visual
Format profile                  : Advanced Simple@L5
Format settings, BVOP            : 2
Format settings, QPel            : No
Format settings, GMC            : No warppoints
Format settings, Matrix          : Default (MPEG)
Codec ID                        : XVID
Codec ID/Hint                    : XviD
Duration                        : 1h 53mn
Bit rate                        : 723 Kbps
Width                            : 720 pixels
Height                          : 304 pixels
Display aspect ratio            : 2.35:1
Frame rate                      : 23.976 fps
Color space                      : YUV
Chroma subsampling              : 4:2:0
Bit depth                        : 8 bits
Scan type                        : Progressive
Compression mode                : Lossy
Bits/(Pixel*Frame)              : 0.138
Stream size                      : 585 MiB (84%)
Writing library                  : XviD 1.2.1 (UTC 2008-12-04)

Audio
ID                              : 1
Format                          : MPEG Audio
Format version                  : Version 1
Format profile                  : Layer 3
Mode                            : Joint stereo
Mode extension                  : MS Stereo
Codec ID                        : 55
Codec ID/Hint                    : MP3
Duration                        : 1h 53mn
Bit rate mode                    : Constant
Bit rate                        : 128 Kbps
Channel(s)                      : 2 channels
Sampling rate                    : 48.0 KHz
Compression mode                : Lossy
Stream size                      : 104 MiB (15%)
Alignment                        : Aligned on interleaves
Interleave, duration            : 42 ms (1.00 video frame)
Interleave, preload duration    : 504 ms

DOWNLOAD:

hellshare

kód:
http://download.hellshare.sk/neznamy-2011-avi/3587341

upnito.sk

kód:
http://www.upnito.sk/subor/06e335f6e56becea9466f9b809927550.html

quickshare.cz
kód:
http://www.quickshare.cz/stahnout-soubor/605276:neznamy-2011-avi_696MB

PASS:no
Návrat hore Goto down
Zobrazit informácie o autorovi http://warnerfilm.forumn.org
 
Neznámý / Unknown (2011)
Zobraziť predchádzajúcu tému Zobraziť nasledujúcu tému Návrat hore 
Strana 1 z 1

Povolenie tohoto fóra:Nemôžete odpovedať na témy v tomto fóre.
Vsetko zadarmo :: .::Download filmy::. :: .::Filmy s ceskym a slovenskym dabingom::.-
Prejdi na: