Vsetko zadarmo

Vsetko zadarmo
 
DomovFAQHľadaťRegistráciaZoznam užívateľovUžívateľské skupinyPrihlásenie

Share | 
 

 Neporazitelný: Vykoupení / Undisputed III (2010)

Zobraziť predchádzajúcu tému Zobraziť nasledujúcu tému Goto down 
AutorSpráva
aismen
Mega Uploader
Mega Uploader


Počet príspevkov : 703
Registration date : 16.04.2008

OdoslaťPredmet: Neporazitelný: Vykoupení / Undisputed III (2010)   Ne september 18, 2011 6:37 pm

Neporaziteľný 3: Vykúpenie
Undisputed III: Redemption
Neporazitelný: Vykoupení


Akční / Krimi / Drama
USA, 2010, 96 min
http://www.csfd.cz/film/244304-neporazitelny-vykoupeni/
Režie:Isaac Florentine
Hrají:Scott Adkins, Mykel Shannon Jenkins, Mark Ivanir, Hristo Shopov, Borislav Iliev, Lateef Crowder, Ilram Choi, Robert Costanzo, Marko Zaror

Koloběh nelegálních vězeňských zápasů se roztáčí na plné obrátky! Nejlepší bojovníci z celého světa se scházejí ke konečnému souboji, který rozhodne o tom, kdo z nich získá svobodu. Uri Boyka, král ruských zápasníků, vstupuje do boje, aby se pomstil svému nepříteli…

INFO:
kód:
Format                          : AVI
Format/Info                      : Audio Video Interleave
File size                        : 879 MiB
Duration                        : 1h 32mn
Overall bit rate                : 1 336 Kbps
Writing application              : MEncoder Sherpya-SVN-r30075-4.2.5
Writing library                  : MPlayer

Video
ID                              : 0
Format                          : MPEG-4 Visual
Format profile                  : Simple@L1
Format settings, BVOP            : No
Format settings, QPel            : No
Format settings, GMC            : No warppoints
Format settings, Matrix          : Default (H.263)
Codec ID                        : DIVX
Codec ID/Info                    : Project Mayo
Codec ID/Hint                    : DivX 4
Duration                        : 1h 32mn
Bit rate                        : 1 199 Kbps
Width                            : 700 pixels
Height                          : 400 pixels
Display aspect ratio            : 16:9
Frame rate                      : 25.000 fps
Color space                      : YUV
Chroma subsampling              : 4:2:0
Bit depth                        : 8 bits
Scan type                        : Progressive
Compression mode                : Lossy
Bits/(Pixel*Frame)              : 0.171
Stream size                      : 789 MiB (90%)
Writing library                  : Lavc52.43.0

Audio
ID                              : 1
Format                          : MPEG Audio
Format version                  : Version 1
Format profile                  : Layer 3
Mode                            : Joint stereo
Mode extension                  : MS Stereo
Codec ID                        : 55
Codec ID/Hint                    : MP3
Duration                        : 1h 32mn
Bit rate mode                    : Variable
Bit rate                        : 124 Kbps
Channel(s)                      : 2 channels
Sampling rate                    : 48.0 KHz
Compression mode                : Lossy
Stream size                      : 81.3 MiB (9%)
Alignment                        : Aligned on interleaves
Interleave, duration            : 24 ms (0.60 video frame)
Interleave, preload duration    : 491 ms
DOWNLOAD:

hellshare

kód:
http://download.hellshare.sk/neporazitelny-3-avi/3592703

upnito.sk

kód:
http://www.upnito.sk/subor/087c935759b069285e457cae992cf44f.html

quickshare.cz
kód:
http://www.quickshare.cz/stahnout-soubor/605913:neporazitelny-3-avi_879MB

PASS:no
Návrat hore Goto down
Zobrazit informácie o autorovi http://warnerfilm.forumn.org
 
Neporazitelný: Vykoupení / Undisputed III (2010)
Zobraziť predchádzajúcu tému Zobraziť nasledujúcu tému Návrat hore 
Strana 1 z 1

Povolenie tohoto fóra:Nemôžete odpovedať na témy v tomto fóre.
Vsetko zadarmo :: .::Download filmy::. :: .::Filmy s ceskym a slovenskym dabingom::.-
Prejdi na: