Vsetko zadarmo

Vsetko zadarmo
 
DomovFAQHľadaťRegistráciaZoznam užívateľovUžívateľské skupinyPrihlásenie

Share | 
 

 Neporaziteľný 2/Undisputed II: Last Man Standing(2006)

Zobraziť predchádzajúcu tému Zobraziť nasledujúcu tému Goto down 
AutorSpráva
aismen
Mega Uploader
Mega Uploader


Počet príspevkov : 703
Registration date : 16.04.2008

OdoslaťPredmet: Neporaziteľný 2/Undisputed II: Last Man Standing(2006)   Ne september 18, 2011 6:35 pm

Neporaziteľný 2
Undisputed II: Last Man Standing
Neporazitelný II: Poslední zůstává


Akční / Krimi / Drama / Sportovní
USA, 2006, 98 min
http://www.csfd.cz/film/222991-neporazitelny-ii-posledni-zustava/
Režie:Isaac Florentine
Hrají:Michael Jai White, Scott Adkins, Eli Danker, Ben Cross, Velizar Binev, Mark Ivanir, Silvio Simac, Raicho Vasilev

Profesionálny boxer George "The Iceman" Chambers sa práve chystá pre reklamné natáčanie odletieť do Ruska, no zlí chlapci z mafie mu strčia do kufru drogy a šampión putuje rovno do najtvrdšieho väzenia na Sibíri. Tu ho nútia bojovať v krvilačnom súboji bez pravidiel proti tunajšiemu majstrovi väzenia Uri Boykovi. Chambers sa nechce zúčastniť súboja, no pod nátlakom sa zúčastní a je podvedený. Teraz sa prebúdza jeho pravé boxerské ja, lebo k slobode vedie len víťazstvo...

INFO:
kód:
Format                          : AVI
Format/Info                      : Audio Video Interleave
File size                        : 830 MiB
Duration                        : 1h 33mn
Overall bit rate                : 1 240 Kbps
Writing application              : VirtualDubMod 1.5.10.2 (build 2540/release)
Writing library                  : VirtualDubMod build 2540/release

Video
ID                              : 0
Format                          : MPEG-4 Visual
Format profile                  : Simple@L3
Format settings, BVOP            : 2
Format settings, QPel            : No
Format settings, GMC            : No warppoints
Format settings, Matrix          : Default (H.263)
Muxing mode                      : Packed bitstream
Codec ID                        : XVID
Codec ID/Hint                    : XviD
Duration                        : 1h 33mn
Bit rate                        : 909 Kbps
Width                            : 592 pixels
Height                          : 320 pixels
Display aspect ratio            : 1.850
Frame rate                      : 25.000 fps
Color space                      : YUV
Chroma subsampling              : 4:2:0
Bit depth                        : 8 bits
Scan type                        : Progressive
Compression mode                : Lossy
Bits/(Pixel*Frame)              : 0.192
Stream size                      : 608 MiB (73%)
Writing library                  : XviD 1.0.3 (UTC 2004-12-20)

Audio #1
ID                              : 1
Format                          : MPEG Audio
Format version                  : Version 1
Format profile                  : Layer 2
Codec ID                        : 50
Duration                        : 1h 33mn
Bit rate mode                    : Constant
Bit rate                        : 192 Kbps
Channel(s)                      : 2 channels
Sampling rate                    : 48.0 KHz
Compression mode                : Lossy
Stream size                      : 128 MiB (15%)
Alignment                        : Split accross interleaves
Interleave, duration            : 40 ms (1.00 video frame)
Interleave, preload duration    : 500 ms

Audio #2
ID                              : 2
Format                          : MPEG Audio
Format version                  : Version 1
Format profile                  : Layer 3
Mode                            : Joint stereo
Mode extension                  : MS Stereo
Codec ID                        : 55
Codec ID/Hint                    : MP3
Duration                        : 1h 33mn
Bit rate mode                    : Variable
Bit rate                        : 128 Kbps
Channel(s)                      : 2 channels
Sampling rate                    : 48.0 KHz
Compression mode                : Lossy
Stream size                      : 83.5 MiB (10%)
Alignment                        : Split accross interleaves
Interleave, duration            : 40 ms (1.00 video frame)
Interleave, preload duration    : 500 ms
Writing library                  : LAME3.90.

DOWNLOAD:

hellshare

kód:
http://download.hellshare.sk/neporazitelny-2-avi/3592692

upnito.sk

kód:
http://www.upnito.sk/subor/f791027633f0d856c4adc81714cbf2a6.html

quickshare.cz
kód:
http://www.quickshare.cz/stahnout-soubor/605912:neporazitelny-2-avi_830MB

PASS:no
Návrat hore Goto down
Zobrazit informácie o autorovi http://warnerfilm.forumn.org
 
Neporaziteľný 2/Undisputed II: Last Man Standing(2006)
Zobraziť predchádzajúcu tému Zobraziť nasledujúcu tému Návrat hore 
Strana 1 z 1

Povolenie tohoto fóra:Nemôžete odpovedať na témy v tomto fóre.
Vsetko zadarmo :: .::Download filmy::. :: .::Filmy s ceskym a slovenskym dabingom::.-
Prejdi na: