Vsetko zadarmo

Vsetko zadarmo
 
DomovFAQHľadaťRegistráciaZoznam užívateľovUžívateľské skupinyPrihlásenie

Share | 
 

 Neporazitelný / Undisputed (2002)

Zobraziť predchádzajúcu tému Zobraziť nasledujúcu tému Goto down 
AutorSpráva
aismen
Mega Uploader
Mega Uploader


Počet príspevkov : 703
Registration date : 16.04.2008

OdoslaťPredmet: Neporazitelný / Undisputed (2002)   Ne september 18, 2011 6:34 pm

Neporaziteľný
Undisputed
Neporazitelný


Drama / Akční / Krimi / Sportovní
USA / Německo, 2002, 90 min
http://www.csfd.cz/film/4347-neporazitelny/
Režie:Walter Hill
Hrají:Wesley Snipes, Ving Rhames, Peter Falk, Michael Rooker, Jon Seda, Wes Studi, Fisher Stevens, Master P, Rose Rollins, Elaine Kagan, Michael Bailey Smith

Nadějný boxer Monroe Hutchen (WESLEY SNIPES) byl odsouzen k doživotnímu trestu, který si odpykává v přísně střeženém vězení Sweetwateru. Právě tam ovšem přichází jako vězeň i úřadující mistr světa v těžké váze George Ranař Chambers (VING RHAMES). Ten nesnese jakékoli pomyšlení, že by mohl být někdo lepší než on, a Monroea napadne. V připravovaném zápase půjde o hodně. Zvlášť, když jsou v sázce i peněz a svoboda.

INFO:
kód:
Format                          : AVI
Format/Info                      : Audio Video Interleave
File size                        : 696 MiB
Duration                        : 1h 25mn
Overall bit rate                : 1 140 Kbps

Video
ID                              : 0
Format                          : MPEG-4 Visual
Format profile                  : Simple@L3
Format settings, BVOP            : No
Format settings, QPel            : No
Format settings, GMC            : No warppoints
Format settings, Matrix          : Default (H.263)
Codec ID                        : XVID
Codec ID/Hint                    : XviD
Duration                        : 1h 25mn
Bit rate                        : 938 Kbps
Width                            : 648 pixels
Height                          : 408 pixels
Display aspect ratio            : 1.588
Frame rate                      : 25.000 fps
Color space                      : YUV
Chroma subsampling              : 4:2:0
Bit depth                        : 8 bits
Scan type                        : Progressive
Compression mode                : Lossy
Bits/(Pixel*Frame)              : 0.142
Stream size                      : 573 MiB (82%)
Writing library                  : XviD 0.0.12 (UTC 2003-06-11)

Audio
ID                              : 1
Format                          : MPEG Audio
Format version                  : Version 1
Format profile                  : Layer 3
Mode                            : Joint stereo
Mode extension                  : MS Stereo
Codec ID                        : 55
Codec ID/Hint                    : MP3
Duration                        : 1h 25mn
Bit rate mode                    : Constant
Bit rate                        : 192 Kbps
Channel(s)                      : 2 channels
Sampling rate                    : 48.0 KHz
Compression mode                : Lossy
Delay relative to video          : 24ms
Stream size                      : 117 MiB (17%)
Alignment                        : Split accross interleaves
Interleave, duration            : 40 ms (1.00 video frame)
Title                            : Audio Stream
Writing library                  : LAME3.92

DOWNLOAD:

hellshare

kód:
http://download.hellshare.sk/neporazitelny-avi/3592710

upnito.sk

kód:
http://www.upnito.sk/subor/9a3c3b4866f6e54d4d757e52187dc10a.html

quickshare.cz

kód:
http://www.quickshare.cz/stahnout-soubor/605910:neporazitelny-avi_696MB

PASS:no
Návrat hore Goto down
Zobrazit informácie o autorovi http://warnerfilm.forumn.org
 
Neporazitelný / Undisputed (2002)
Zobraziť predchádzajúcu tému Zobraziť nasledujúcu tému Návrat hore 
Strana 1 z 1

Povolenie tohoto fóra:Nemôžete odpovedať na témy v tomto fóre.
Vsetko zadarmo :: .::Download filmy::. :: .::Filmy s ceskym a slovenskym dabingom::.-
Prejdi na: