Vsetko zadarmo

Vsetko zadarmo
 
DomovFAQHľadaťRegistráciaZoznam užívateľovUžívateľské skupinyPrihlásenie

Share | 
 

 Naše rodinná svatba / Our Family Wedding (2010)

Zobraziť predchádzajúcu tému Zobraziť nasledujúcu tému Goto down 
AutorSpráva
aismen
Mega Uploader
Mega Uploader


Počet príspevkov : 703
Registration date : 16.04.2008

OdoslaťPredmet: Naše rodinná svatba / Our Family Wedding (2010)   Ne september 18, 2011 6:32 pm

Our Family Wedding
Naše rodinná svatba


Komedie / Romantický
USA, 2010, 99 min

http://www.csfd.cz/film/271937-nase-rodinna-svatba/

Režie:Rick Famuyiwa
Hrají:Taye Diggs, Forest Whitaker, America Ferrera, Regina King, Fred Armisen, Charles Q. Murphy, Natalina Maggio, Anna Maria Horsford, Lupe Ontiveros, Joaquin Pastor, Noel Gugliemi

Když se čerstvě zasnoubení vysokoškoláci Lucia a Marcus vrací domů a nečekaně oznámí plány na svatbu, zjišťují, že jejich velmi soutěživí a velmi ješitní otcové by mohli v jejich slavnostní den způsobit spoustu škody.
Naše manželství, jejich svatba – tak zní první lekce pro všechny čerstvé snoubence a Lucia s Markusem nejsou výjimkou. A brzy zjistí, že jejich nevinné Ano může vést k velkému rodinnému sporu. Když se jednoho dne vrátí ze školy a oznámí svým rodinám, že se chtějí vzít, zjišťují, že jejich egoističtí otcové by mohli v jejich slavnostní den způsobit spoustu škody. Vzduchem létají urážky, napětí stoupá a nikdo si není jistý, jestli se otcové – dva umínění alfa samci ((Forest Whitaker a Carlos Mencia) – před obřadem ještě třeba nepoperou. Luciina matka (Diana Maria Riva) je absolutně pohlcena přípravami na perfektní svatbu své dcery a tak jediným klidným členem svatebního šílenství zůstává právnička Angela (Regina King), nejlepší kamarádka ženichova otce. Během následujících týdnů vyplněných svatebními přípravami snoubenci zjišťují, že když si někoho bereš, bereš si opravdu celou rodinu!

INFO:
kód:
Format                          : AVI
Format/Info                      : Audio Video Interleave
File size                        : 896 MiB
Duration                        : 1h 38mn
Overall bit rate                : 1 267 Kbps
Writing application              : VirtualDubMod 1.5.10.2 (build 2542/release)
Writing library                  : VirtualDubMod build 2542/release

Video
ID                              : 0
Format                          : MPEG-4 Visual
Format profile                  : Advanced Simple@L5
Format settings, BVOP            : 1
Format settings, QPel            : No
Format settings, GMC            : No warppoints
Format settings, Matrix          : Default (H.263)
Muxing mode                      : Packed bitstream
Codec ID                        : XVID
Codec ID/Hint                    : XviD
Duration                        : 1h 38mn
Bit rate                        : 1 129 Kbps
Width                            : 640 pixels
Height                          : 360 pixels
Display aspect ratio            : 16:9
Frame rate                      : 25.000 fps
Color space                      : YUV
Chroma subsampling              : 4:2:0
Bit depth                        : 8 bits
Scan type                        : Progressive
Compression mode                : Lossy
Bits/(Pixel*Frame)              : 0.196
Stream size                      : 799 MiB (89%)
Writing library                  : XviD 1.2.1 (UTC 2008-12-04)

Audio
ID                              : 1
Format                          : MPEG Audio
Format version                  : Version 1
Format profile                  : Layer 3
Mode                            : Joint stereo
Mode extension                  : MS Stereo
Codec ID                        : 55
Codec ID/Hint                    : MP3
Duration                        : 1h 38mn
Bit rate mode                    : Constant
Bit rate                        : 128 Kbps
Channel(s)                      : 2 channels
Sampling rate                    : 44.1 KHz
Compression mode                : Lossy
Stream size                      : 90.5 MiB (10%)
Alignment                        : Split accross interleaves
Interleave, duration            : 40 ms (1.00 video frame)
Interleave, preload duration    : 500 ms

DOWNLOAD:


hellshare

kód:
http://download.hellshare.sk/nase-rodinna-svatba-avi/3559168

upnito.sk

kód:
http://www.upnito.sk/subor/6476cf9151cad0408ec4de8aa2657e16.html

ulozto.sk

kód:
http://www.ulozto.sk/10217719/nase-rodinna-svatba-avi

filefactory.com

kód:
http://www.filefactory.com/file/cd9eb49/n/Nase_rodinna_svatba.avi 

rapidshare.com

kód:
https://rapidshare.com/files/2626022375/Nase_rodinna_svatba.avi

x7.to
kód:
http://x7.to/uyzspb

PASS:no
Návrat hore Goto down
Zobrazit informácie o autorovi http://warnerfilm.forumn.org
 
Naše rodinná svatba / Our Family Wedding (2010)
Zobraziť predchádzajúcu tému Zobraziť nasledujúcu tému Návrat hore 
Strana 1 z 1

Povolenie tohoto fóra:Nemôžete odpovedať na témy v tomto fóre.
Vsetko zadarmo :: .::Download filmy::. :: .::Filmy s ceskym a slovenskym dabingom::.-
Prejdi na: