Vsetko zadarmo

Vsetko zadarmo
 
DomovFAQHľadaťRegistráciaZoznam užívateľovUžívateľské skupinyPrihlásenie

Share | 
 

 Na hraně temnoty / Edge of Darkness (2010)

Zobraziť predchádzajúcu tému Zobraziť nasledujúcu tému Goto down 
AutorSpráva
aismen
Mega Uploader
Mega Uploader


Počet príspevkov : 703
Registration date : 16.04.2008

OdoslaťPredmet: Na hraně temnoty / Edge of Darkness (2010)   Ne september 18, 2011 6:30 pm

Na hrane temnoty
Edge of Darkness
Na hraně temnoty


Drama / Thriller
USA / Velká Británie, 2010, 117 min

http://www.csfd.cz/film/244957-na-hrane-temnoty/

Režie:Martin Campbell
Hudba:Howard Shore
Hrají:Mel Gibson, Ray Winstone, Danny Huston, Bojana Novakovic, Jay O. Sanders, Denis O'Hare, Caterina Scorsone, Damian Young, Shawn Roberts, David Aaron Baker, Dan Marshall, Daniel Lowney, Robert Masiello, Thomas B. Duffy, Tom Kemp, Gbenga Akinnagbe, Christy Scott Cashman, Peter Hermann, Paul Sparks, Nico Evers - Swindell

Propracovaný detektivní thriller s Melem Gibsonem, který se v hlavní filmové roli objevuje poprvé od roku 2002, kombinuje skvělý scénář s přímočarou akcí. Detektivovi Thomasovi Cravenovi umírá v náručí jeho vlastní dcera. Během vyšetřování její vraždy proniká Thomas stále hlouběji do nebezpečného světa zločinů velkých korporací, vládního krytí a vražd, které je mají utajit. Jeden z nájemných vrahů, kteří zametají a čistí důkazy, ho navede směrem, jež změní pátrání na divokou temnou cestu až na hranici vykoupení.

INFO:
kód:
Format                          : AVI
Format/Info                      : Audio Video Interleave
File size                        : 693 MiB
Duration                        : 1h 51mn
Overall bit rate                : 869 Kbps

Video
ID                              : 0
Format                          : MPEG-4 Visual
Format profile                  : Advanced Simple@L5
Format settings, BVOP            : 2
Format settings, QPel            : No
Format settings, GMC            : No warppoints
Format settings, Matrix          : Default (H.263)
Codec ID                        : XVID
Codec ID/Hint                    : XviD
Duration                        : 1h 51mn
Bit rate                        : 731 Kbps
Width                            : 640 pixels
Height                          : 260 pixels
Display aspect ratio            : 2.462
Frame rate                      : 25.000 fps
Color space                      : YUV
Chroma subsampling              : 4:2:0
Bit depth                        : 8 bits
Scan type                        : Progressive
Compression mode                : Lossy
Bits/(Pixel*Frame)              : 0.176
Stream size                      : 583 MiB (84%)
Writing library                  : XviD 1.2.1 (UTC 2008-12-04)

Audio
ID                              : 1
Format                          : MPEG Audio
Format version                  : Version 1
Format profile                  : Layer 3
Codec ID                        : 55
Codec ID/Hint                    : MP3
Duration                        : 1h 51mn
Bit rate mode                    : Constant
Bit rate                        : 128 Kbps
Channel(s)                      : 2 channels
Sampling rate                    : 48.0 KHz
Compression mode                : Lossy
Stream size                      : 102 MiB (15%)
Alignment                        : Aligned on interleaves
Interleave, duration            : 40 ms (1.00 video frame)
DOWNLOAD:
hellshare
kód:
http://download.hellshare.sk/nahranetemnoty-avi/3548241
upnito.sk
kód:
http://www.upnito.sk/subor/a2ca53528c7420fe8c8a1dbce5352932.html
ulozto.sk
kód:
http://www.ulozto.sk/10193027/nahranetemnoty-avi
x7.to
kód:
http://x7.to/25k7kq
filefactory.com
kód:
http://www.filefactory.com/file/cd8b25f/n/NaHraneTemnoty.avi



PASS:
no
Návrat hore Goto down
Zobrazit informácie o autorovi http://warnerfilm.forumn.org
 
Na hraně temnoty / Edge of Darkness (2010)
Zobraziť predchádzajúcu tému Zobraziť nasledujúcu tému Návrat hore 
Strana 1 z 1

Povolenie tohoto fóra:Nemôžete odpovedať na témy v tomto fóre.
Vsetko zadarmo :: .::Download filmy::. :: .::Filmy s ceskym a slovenskym dabingom::.-
Prejdi na: