Vsetko zadarmo

Vsetko zadarmo
 
DomovFAQHľadaťRegistráciaZoznam užívateľovUžívateľské skupinyPrihlásenie

Share | 
 

 Moucha / Mucha / Fly, The (1986)

Zobraziť predchádzajúcu tému Zobraziť nasledujúcu tému Goto down 
AutorSpráva
aismen
Mega Uploader
Mega Uploader


Počet príspevkov : 703
Registration date : 16.04.2008

OdoslaťPredmet: Moucha / Mucha / Fly, The (1986)   Ne september 18, 2011 6:27 pm

Mucha
Fly, The
Moucha


Horor / Sci-Fi / Drama
USA, 1986, 95 min

http://www.csfd.cz/film/1789-moucha/

Režie:David Cronenberg
Hudba:Howard Shore
Hrají:Jeff Goldblum, Geena Davis, John Getz, David Cronenberg

Seth Brundle je mladý ambiciózní vědec, který se zabývá teleportováním lidí na dálku prostřednictvím takzvaných telepodů. Jako správný vědec zkouší své objevy sám na sobě. Vše jde dobře až do okamžiku, kdy jeho pozornosti unikne jen jediná maličkost: do telepodu se společně s ním dostane moucha a při procesu teleportování dojde ke smíchání DNA obou účastníků pokusu. A tak začíná pomalý proces Sethovy proměny v mouchu. Seth hledá usilovně protilék, bude mít však na to dostatek času?

INFO:
kód:
Format                          : AVI
Format/Info                      : Audio Video Interleave
File size                        : 1.41 GiB
Duration                        : 1h 31mn
Overall bit rate                : 2 202 Kbps

Video
ID                              : 0
Format                          : MPEG-4 Visual
Format profile                  : Advanced Simple@L5
Format settings, BVOP            : 2
Format settings, QPel            : No
Format settings, GMC            : No warppoints
Format settings, Matrix          : Custom
Codec ID                        : XVID
Codec ID/Hint                    : XviD
Duration                        : 1h 31mn
Bit rate                        : 1 808 Kbps
Width                            : 720 pixels
Height                          : 384 pixels
Display aspect ratio            : 1.875
Frame rate                      : 25.000 fps
Color space                      : YUV
Chroma subsampling              : 4:2:0
Bit depth                        : 8 bits
Scan type                        : Progressive
Compression mode                : Lossy
Bits/(Pixel*Frame)              : 0.262
Stream size                      : 1.16 GiB (82%)
Writing library                  : XviD 1.2.1 (UTC 2008-12-04)

Audio
ID                              : 1
Format                          : AC-3
Format/Info                      : Audio Coding 3
Mode extension                  : CM (complete main)
Codec ID                        : 2000
Duration                        : 1h 31mn
Bit rate mode                    : Constant
Bit rate                        : 384 Kbps
Channel(s)                      : 6 channels
Channel positions                : Front: L C R, Side: L R, LFE
Sampling rate                    : 48.0 KHz
Bit depth                        : 16 bits
Compression mode                : Lossy
Stream size                      : 252 MiB (17%)
Alignment                        : Split accross interleaves
Interleave, duration            : 40 ms (1.00 video frame)
Interleave, preload duration    : 500 ms

DOWNLOAD:

hellshare

kód:
http://download.hellshare.sk/moucha-1986-avi/3587303

quickshare.cz
kód:
http://www.quickshare.cz/stahnout-soubor/605274:moucha-1986-avi_1444MB

PASS:no
Návrat hore Goto down
Zobrazit informácie o autorovi http://warnerfilm.forumn.org
 
Moucha / Mucha / Fly, The (1986)
Zobraziť predchádzajúcu tému Zobraziť nasledujúcu tému Návrat hore 
Strana 1 z 1

Povolenie tohoto fóra:Nemôžete odpovedať na témy v tomto fóre.
Vsetko zadarmo :: .::Download filmy::. :: .::Filmy s ceskym a slovenskym dabingom::.-
Prejdi na: