Vsetko zadarmo

Vsetko zadarmo
 
DomovFAQHľadaťRegistráciaZoznam užívateľovUžívateľské skupinyPrihlásenie

Share | 
 

 Moby Dick (2010)

Zobraziť predchádzajúcu tému Zobraziť nasledujúcu tému Goto down 
AutorSpráva
aismen
Mega Uploader
Mega Uploader


Počet príspevkov : 703
Registration date : 16.04.2008

OdoslaťPredmet: Moby Dick (2010)   Ne september 18, 2011 6:26 pm

Moby Dick
2010: Moby Dick


Akční / Horor
USA, 2010

http://www.csfd.cz/film/287087-2010-moby-dick/

Hrají:Barry Bostwick, Reneé O'Connor

Děj se odehrává v nedaleké budoucnosti. Doktorka Michelle Hermanová (Renée O'Connor) se připojila k posádce ponorky USS Pequod pod velením kapitána Achaba (Barry Bostwick), který chce za každou cenu ulovit obří velrybu. Hermanová je svědkem neustále se zvyšující kapitánovy obsese, že velrybu musí chytit. Čím je posádka blíže k cíli, tím se Achabovo nutkavé šílenství zvyšuje. Konečně se podaří ponorce kytovce objevit. Stane se Moby Dick obětí, nebo se kapitánovy plány zhroutí?

INFO:

kód:
Format                          : AVI
Format/Info                      : Audio Video Interleave
File size                        : 1.07 GiB
Duration                        : 1h 23mn
Overall bit rate                : 1 832 Kbps
Movie name                      : 2010_MOBY_DICK.Title1.DVDRip
Writing application              : Lavf52.33.0
Original source form/Name        : 2010_MOBY_DICK

Video
ID                              : 0
Format                          : xvid
Codec ID                        : xvid
Duration                        : 1h 23mn
Bit rate                        : 1 374 Kbps
Width                            : 704 pixels
Height                          : 396 pixels
Display aspect ratio            : 16:9
Frame rate                      : 25.000 fps
Bits/(Pixel*Frame)              : 0.197
Stream size                      : 822 MiB (75%)

Audio
ID                              : 1
Format                          : AC-3
Format/Info                      : Audio Coding 3
Mode extension                  : CM (complete main)
Codec ID                        : 2000
Duration                        : 1h 23mn
Bit rate mode                    : Constant
Bit rate                        : 448 Kbps
Channel(s)                      : 2 channels
Channel positions                : Front: L R
Sampling rate                    : 48.0 KHz
Bit depth                        : 16 bits
Compression mode                : Lossy
Stream size                      : 268 MiB (24%)
Alignment                        : Aligned on interleaves
Interleave, duration            : 32 ms (0.80 video frame)
Interleave, preload duration    : 32 ms

DOWNLOAD:

hellshare

kód:
http://download.hellshare.sk/moby-dick-2010-avi/3559034

upnito.sk

kód:
http://www.upnito.sk/subor/a3bc931052ee5ffde98c006d5d0df946.html
http://www.upnito.sk/subor/cc5cdc70ebb3050d96cea322d979a86c.html

ulozto.sk

kód:
http://www.ulozto.sk/10217462/moby-dick-2010-avi

filefactory.com

kód:
http://www.filefactory.com/file/cd9d67e/n/Moby_Dick_2010.avi

rapidshare.com

kód:
https://rapidshare.com/files/219402057/Moby_Dick_2010.avi

x7.to

kód:
http://x7.to/76r9cw
http://x7.to/fk14gc
PASS:no
Návrat hore Goto down
Zobrazit informácie o autorovi http://warnerfilm.forumn.org
 
Moby Dick (2010)
Zobraziť predchádzajúcu tému Zobraziť nasledujúcu tému Návrat hore 
Strana 1 z 1

Povolenie tohoto fóra:Nemôžete odpovedať na témy v tomto fóre.
Vsetko zadarmo :: .::Download filmy::. :: .::Filmy s ceskym a slovenskym dabingom::.-
Prejdi na: