Vsetko zadarmo

Vsetko zadarmo
 
DomovFAQHľadaťRegistráciaZoznam užívateľovUžívateľské skupinyPrihlásenie

Share | 
 

 Londýnský gangster / London Boulevard (2010)

Zobraziť predchádzajúcu tému Zobraziť nasledujúcu tému Goto down 
AutorSpráva
aismen
Mega Uploader
Mega Uploader


Počet príspevkov : 703
Registration date : 16.04.2008

OdoslaťPredmet: Londýnský gangster / London Boulevard (2010)   Ne september 18, 2011 6:22 pm

Kšeft za všetky prachy
London Boulevard
Londýnský gangster


Krimi / Drama / Romantický / Thriller
USA / Velká Británie, 2010, 103 min

http://www.csfd.cz/film/253262-londynsky-gangster/

Režie:William Monahan
Hrají:Colin Farrell, Keira Knightley, David Thewlis, Anna Friel, Ben Chaplin, Ray Winstone, Eddie Marsan, Sanjeev Bhaskar, Stephen Graham, Ophelia Lovibond, Jamie Campbell Bower, Lee Boardman, Tim Plester, Matt King, Donald Sumpter

Po třech letech strávených za mřížemi, Mitchel (Colin Farrell) opouští věznici s dobrými úmysly. Ale když potká starého přítele Billyho (Ben Chaplin), gangstera, který se zrovna ohlíží po nějaké práci, Mitchel se k němu připojí, výměnou za místo k bydlení. Když se znovu zaplete se svou minulostí, je vtažen do života Charlotty (Keira Knightley), filmové hvězdy která se schovává před hordou fotografů a reportérů. Přitahován její krásou a zranitelností, rychle se ujímá role jejího ochránce. Začínají spolu plánovat nový život v Los Angeles, ale plány jim zkříží gangový boss Gant. Mitchelovi je jasné, že před Gantovým hněvem není v bezpečí nikdo z jeho blízkých a rozhoduje se vyřešit věci mezi nimi jednou provždy.

INFO:
kód:
Format                          : AVI
Format/Info                      : Audio Video Interleave
File size                        : 704 MiB
Duration                        : 1h 42mn
Overall bit rate                : 958 Kbps
Writing application              : VirtualDubMod 1.5.10.2 (build 2540/release)
Writing library                  : VirtualDubMod build 2540/release
Copyright                        : SaM

Video
ID                              : 0
Format                          : MPEG-4 Visual
Format profile                  : Advanced Simple@L5
Format settings, BVOP            : 4
Format settings, QPel            : No
Format settings, GMC            : No warppoints
Format settings, Matrix          : Default (H.263)
Muxing mode                      : Packed bitstream
Codec ID                        : XVID
Codec ID/Hint                    : XviD
Duration                        : 1h 42mn
Bit rate                        : 821 Kbps
Width                            : 640 pixels
Height                          : 352 pixels
Display aspect ratio            : 16:9
Frame rate                      : 23.976 fps
Color space                      : YUV
Chroma subsampling              : 4:2:0
Bit depth                        : 8 bits
Scan type                        : Progressive
Compression mode                : Lossy
Bits/(Pixel*Frame)              : 0.152
Stream size                      : 603 MiB (86%)
Writing library                  : XviD 62

Audio
ID                              : 1
Format                          : MPEG Audio
Format version                  : Version 1
Format profile                  : Layer 3
Mode                            : Joint stereo
Mode extension                  : MS Stereo
Codec ID                        : 55
Codec ID/Hint                    : MP3
Duration                        : 1h 42mn
Bit rate mode                    : Constant
Bit rate                        : 128 Kbps
Channel(s)                      : 2 channels
Sampling rate                    : 48.0 KHz
Compression mode                : Lossy
Delay relative to video          : 24ms
Stream size                      : 94.0 MiB (13%)
Alignment                        : Aligned on interleaves
Interleave, duration            : 42 ms (1.00 video frame)
Interleave, preload duration    : 504 ms


DOWNLOAD:

hellshare

kód:
http://download.hellshare.sk/londynsky-gangster-2010-avi/3583111

upnito.sk

kód:
http://www.upnito.sk/subor/f4ecface652fcf01831491f79e051652.html

quickshare.cz
kód:
http://www.quickshare.cz/stahnout-soubor/605016:londynsky-gangster-2010-avi_704MB

PASS:no
Návrat hore Goto down
Zobrazit informácie o autorovi http://warnerfilm.forumn.org
 
Londýnský gangster / London Boulevard (2010)
Zobraziť predchádzajúcu tému Zobraziť nasledujúcu tému Návrat hore 
Strana 1 z 1

Povolenie tohoto fóra:Nemôžete odpovedať na témy v tomto fóre.
Vsetko zadarmo :: .::Download filmy::. :: .::Filmy s ceskym a slovenskym dabingom::.-
Prejdi na: