Vsetko zadarmo

Vsetko zadarmo
 
DomovFAQHľadaťRegistráciaZoznam užívateľovUžívateľské skupinyPrihlásenie

Share | 
 

 Loď duchů / Loď duchov / Ghost Ship (2002)

Zobraziť predchádzajúcu tému Zobraziť nasledujúcu tému Goto down 
AutorSpráva
aismen
Mega Uploader
Mega Uploader


Počet príspevkov : 703
Registration date : 16.04.2008

OdoslaťPredmet: Loď duchů / Loď duchov / Ghost Ship (2002)   Ne september 18, 2011 6:12 pm

Loď duchov
Ghost Ship
Loď duchů


Dobrodružný / Horor / Thriller
USA / Austrálie, 2002, 91 min

http://www.csfd.cz/film/18888-lod-duchu/

Režie:Steve Beck
Hudba:John Frizzell
Hrají:Gabriel Byrne, Julianna Margulies, Ron Eldard, Desmond Harrington, Isaiah Washington, Alex Dimitriades, Karl Urban, Emily Browning


V Beringově moři je nalezena výletní loď, která je z dosud nevyjasněných příčin pohřešovaná od roku 1953. Nálezci se domluví, že si ji ponechají, což se později ukáže jako nejhorší rozhodnutí jejich života. Cestou do přístavu se totiž za podivných okolností začnou ztrácet členové posádky. Hrůza z neznámého nepřítele a boj o život promění jejich cestu v opravdové peklo. Vládcem opuštěné lodi je totiž starověký démon

INFO:
kód:
Format                          : AVI
Format/Info                      : Audio Video Interleave
File size                        : 701 MiB
Duration                        : 1h 26mn
Overall bit rate                : 1 126 Kbps
Writing library                  : VirtualDub build 28346/release

Video
ID                              : 0
Format                          : MPEG-4 Visual
Format settings, BVOP            : 1
Format settings, QPel            : No
Format settings, GMC            : No warppoints
Format settings, Matrix          : Default (H.263)
Muxing mode                      : Packed bitstream
Codec ID                        : DX50
Codec ID/Hint                    : DivX 5
Duration                        : 1h 26mn
Bit rate                        : 989 Kbps
Width                            : 640 pixels
Height                          : 368 pixels
Display aspect ratio            : 16:9
Frame rate                      : 25.000 fps
Color space                      : YUV
Chroma subsampling              : 4:2:0
Bit depth                        : 8 bits
Scan type                        : Progressive
Compression mode                : Lossy
Bits/(Pixel*Frame)              : 0.168
Stream size                      : 615 MiB (88%)
Writing library                  : DivX 6.8.0 (UTC 2007-12-04)

Audio
ID                              : 1
Format                          : MPEG Audio
Format version                  : Version 1
Format profile                  : Layer 3
Mode                            : Joint stereo
Mode extension                  : MS Stereo
Codec ID                        : 55
Codec ID/Hint                    : MP3
Duration                        : 1h 26mn
Bit rate mode                    : Constant
Bit rate                        : 128 Kbps
Channel(s)                      : 2 channels
Sampling rate                    : 48.0 KHz
Compression mode                : Lossy
Stream size                      : 79.6 MiB (11%)
Alignment                        : Aligned on interleaves
Interleave, duration            : 40 ms (1.00 video frame)
Interleave, preload duration    : 504 ms

DOWNLOAD:

hellshare

kód:
http://download.hellshare.sk/lod-duchu-avi/3587286

upnito.sk

kód:
http://www.upnito.sk/subor/e7ef6a742cd92730066fe621a7e8aec7.html

quickshare.cz
kód:
http://www.quickshare.cz/stahnout-soubor/605273:lod-duchu-avi_701MB

PASS:no
Návrat hore Goto down
Zobrazit informácie o autorovi http://warnerfilm.forumn.org
 
Loď duchů / Loď duchov / Ghost Ship (2002)
Zobraziť predchádzajúcu tému Zobraziť nasledujúcu tému Návrat hore 
Strana 1 z 1

Povolenie tohoto fóra:Nemôžete odpovedať na témy v tomto fóre.
Vsetko zadarmo :: .::Download filmy::. :: .::Filmy s ceskym a slovenskym dabingom::.-
Prejdi na: