Vsetko zadarmo

Vsetko zadarmo
 
DomovFAQHľadaťRegistráciaZoznam užívateľovUžívateľské skupinyPrihlásenie

Share | 
 

 Lesní duch/Evil Dead, The(1981)

Zobraziť predchádzajúcu tému Zobraziť nasledujúcu tému Goto down 
AutorSpráva
aismen
Mega Uploader
Mega Uploader


Počet príspevkov : 703
Registration date : 16.04.2008

OdoslaťPredmet: Lesní duch/Evil Dead, The(1981)   Ne september 18, 2011 6:11 pm

Evil Dead, The
Lesní duch
Smrtelné zlo



Horor / Thriller / Fantasy

USA, 1981, 85 min (SE: 86 min)
Režie:
Sam Raimi
Hudba:
Joseph LoDuca
Hrají:
Bruce Campbell, Ellen Sandweiss, Richard DeManincor, Betsy Baker, Theresa Tilly, Ted Raimi, Scott Spiegel, Sam Raimi, Ivan Raimi, John Cameron, Cheryl Guttridge


Scenárista a režisér Sam Raimi uvádí svůj nelítostný, krví nasáklý debut, jenž se stal hororovým mezníkem. Nekonečný proud děsivé hrůzy a efektů, které vyvolávají noční můry, film právoplatně řadí mezi kultovní klasiku. Pět vysokoškoláků se vydává na osamělou chatu uprostřed lesů a nechtěně tu probouzí monstrózní zlou sílu odhodlanou zničit všechny do jednoho. S nově digitálně restaurovaným obrazem a náloží neuvěřitelných bonusů se Lesní duch stává zásadním zážitkem v kategorii krvavých hororů.

INFO:
kód:
General
Format                          : AVI
Format/Info                      : Audio Video Interleave
File size                        : 906 MiB
Duration                        : 1h 25mn
Overall bit rate                : 1 477 Kbps
Writing application              : VirtualDubMod 1.5.10.2 (build 2540/release)
Writing library                  : VirtualDubMod build 2540/release

Video
ID                              : 0
Format                          : MPEG-4 Visual
Format settings, BVOP            : 1
Format settings, QPel            : No
Format settings, GMC            : No warppoints
Format settings, Matrix          : Default (H.263)
Muxing mode                      : Packed bitstream
Codec ID                        : DX50
Codec ID/Hint                    : DivX 5
Duration                        : 1h 25mn
Bit rate                        : 1 340 Kbps
Width                            : 640 pixels
Height                          : 480 pixels
Display aspect ratio            : 3:2
Frame rate                      : 25.000 fps
Color space                      : YUV
Chroma subsampling              : 4:2:0
Bit depth                        : 8 bits
Scan type                        : Progressive
Compression mode                : Lossy
Bits/(Pixel*Frame)              : 0.175
Stream size                      : 822 MiB (91%)
Writing library                  : DivX 6.8.0 (UTC 2007-12-04)

Audio
ID                              : 1
Format                          : MPEG Audio
Format version                  : Version 1
Format profile                  : Layer 3
Mode                            : Joint stereo
Mode extension                  : MS Stereo
Codec ID                        : 55
Codec ID/Hint                    : MP3
Duration                        : 1h 25mn
Bit rate mode                    : Constant
Bit rate                        : 128 Kbps
Channel(s)                      : 2 channels
Sampling rate                    : 48.0 KHz
Compression mode                : Lossy
Stream size                      : 77.9 MiB (9%)
Alignment                        : Aligned on interleaves
Interleave, duration            : 40 ms (1.01 video frame)
Interleave, preload duration    : 504 ms

DOWNLOAD:
kód:
http://www.upnito.sk/subor/20e79a6ad8a8a5d2577ff2a7145cef88.html

kód:
http://download.hellshare.sk/lesni-duch-1981-avi/3537669
PASS:
no
Návrat hore Goto down
Zobrazit informácie o autorovi http://warnerfilm.forumn.org
 
Lesní duch/Evil Dead, The(1981)
Zobraziť predchádzajúcu tému Zobraziť nasledujúcu tému Návrat hore 
Strana 1 z 1

Povolenie tohoto fóra:Nemôžete odpovedať na témy v tomto fóre.
Vsetko zadarmo :: .::Download filmy::. :: .::Filmy s ceskym a slovenskym dabingom::.-
Prejdi na: