Vsetko zadarmo

Vsetko zadarmo
 
DomovFAQHľadaťRegistráciaZoznam užívateľovUžívateľské skupinyPrihlásenie

Share | 
 

 Krotitelé duchů / Ghost Busters (1984)

Zobraziť predchádzajúcu tému Zobraziť nasledujúcu tému Goto down 
AutorSpráva
aismen
Mega Uploader
Mega Uploader


Počet príspevkov : 703
Registration date : 16.04.2008

OdoslaťPredmet: Krotitelé duchů / Ghost Busters (1984)   Ne september 18, 2011 6:09 pm

Krotitelia duchov
Ghost Busters
Ghostbusters
Krotitelé duchů


Sci-Fi / Fantasy / Komedie / Dobrodružný
USA, 1984, 107 min

Režie:Ivan Reitman
Hudba:Elmer Bernstein
Hrají:Bill Murray, Dan Aykroyd, Sigourney Weaver, Harold Ramis, Rick Moranis, Annie Potts, William Atherton, Ernie Hudson, Slavitza Jovan, Alice Drummond, Timothy Carhart, John Rothman, Casey Kasem, Reginald VelJohnson, Ivan Reitman, Ron Jeremy

http://www.csfd.cz/film/10360-krotitele-duchu/

Hejna malých zelených duchů, strašidla a paranormální jevy se začínají objevovat v New Yorku. Kdo může ochránit lidi před těmito nadpřirozenými bytostmi? Pouze tři nezaměstnaní parapsychologové. Dávají se dohromady a vytvářejí tým lovců duchů. Vybaveni ektoplazmovými kanóny, pastmi na duchy a speciálním vozidlem bojují proti přesile slizských oblud.

INFO:
kód:
Format                          : AVI
Format/Info                      : Audio Video Interleave
File size                        : 1.37 GiB
Duration                        : 1h 40mn
Overall bit rate                : 1 940 Kbps
Writing application              : VirtualDubMod 1.5.4.1 (build 2178/release)
Writing library                  : VirtualDubMod build 2178/release

Video
ID                              : 0
Format                          : MPEG-4 Visual
Format profile                  : Advanced Simple@L5
Format settings, BVOP            : 1
Format settings, QPel            : No
Format settings, GMC            : No warppoints
Format settings, Matrix          : Custom
Codec ID                        : XVID
Codec ID/Hint                    : XviD
Duration                        : 1h 40mn
Bit rate                        : 1 546 Kbps
Width                            : 720 pixels
Height                          : 304 pixels
Display aspect ratio            : 2.35:1
Frame rate                      : 25.000 fps
Color space                      : YUV
Chroma subsampling              : 4:2:0
Bit depth                        : 8 bits
Scan type                        : Progressive
Compression mode                : Lossy
Bits/(Pixel*Frame)              : 0.283
Stream size                      : 1.09 GiB (80%)
Writing library                  : XviD 1.2.0.dev47 (UTC 2006-11-01)

Audio #1
ID                              : 1
Format                          : MPEG Audio
Format version                  : Version 1
Format profile                  : Layer 3
Mode                            : Joint stereo
Mode extension                  : MS Stereo
Codec ID                        : 55
Codec ID/Hint                    : MP3
Duration                        : 1h 40mn
Bit rate mode                    : Constant
Bit rate                        : 192 Kbps
Channel(s)                      : 2 channels
Sampling rate                    : 48.0 KHz
Compression mode                : Lossy
Stream size                      : 139 MiB (10%)
Alignment                        : Aligned on interleaves
Interleave, duration            : 80 ms (2.00 video frames)
Interleave, preload duration    : 504 ms
Writing library                  : LAME3.97
Encoding settings                : -m j -V 4 -q 2 -lowpass 18.6 -b 192
Language                        : Czech

Audio #2
ID                              : 2
Format                          : MPEG Audio
Format version                  : Version 1
Format profile                  : Layer 3
Mode                            : Joint stereo
Mode extension                  : MS Stereo
Codec ID                        : 55
Codec ID/Hint                    : MP3
Duration                        : 1h 40mn
Bit rate mode                    : Constant
Bit rate                        : 192 Kbps
Channel(s)                      : 2 channels
Sampling rate                    : 48.0 KHz
Compression mode                : Lossy
Stream size                      : 139 MiB (10%)
Alignment                        : Aligned on interleaves
Interleave, duration            : 80 ms (2.00 video frames)
Interleave, preload duration    : 504 ms

DOWNLOAD:

hellshare

kód:
http://download.hellshare.sk/krotitele-duchu-avi/3611822

upnito.sk

kód:
http://www.upnito.sk/subor/415a846adcdec05ea80b4ad0d8f9add6.html
http://www.upnito.sk/subor/c5968e8b96d0b68469e2d103bf1821e4.html

quickshare.cz
kód:
http://www.quickshare.cz/stahnout-soubor/608017:krotitele-duchu-avi_1400MB

PASS:no
Návrat hore Goto down
Zobrazit informácie o autorovi http://warnerfilm.forumn.org
 
Krotitelé duchů / Ghost Busters (1984)
Zobraziť predchádzajúcu tému Zobraziť nasledujúcu tému Návrat hore 
Strana 1 z 1

Povolenie tohoto fóra:Nemôžete odpovedať na témy v tomto fóre.
Vsetko zadarmo :: .::Download filmy::. :: .::Filmy s ceskym a slovenskym dabingom::.-
Prejdi na: