Vsetko zadarmo

Vsetko zadarmo
 
DomovFAQHľadaťRegistráciaZoznam užívateľovUžívateľské skupinyPrihlásenie

Share | 
 

 Králi bowlingu/Kingpin(1996)

Zobraziť predchádzajúcu tému Zobraziť nasledujúcu tému Goto down 
AutorSpráva
aismen
Mega Uploader
Mega Uploader


Počet príspevkov : 703
Registration date : 16.04.2008

OdoslaťPredmet: Králi bowlingu/Kingpin(1996)   Ne september 18, 2011 6:07 pm

Králi bowlingu
Kingpin
Kingpin


Komedie / Sportovní
USA, 1996, 113 min

http://www.csfd.cz/film/2590-kingpin/

Režie:Peter Farrelly, Bobby Farrelly
Hrají:Woody Harrelson, Randy Quaid, Vanessa Angel, Bill Murray, Chris Elliott, Richard Tyson, Lin Shaye, Will Rothhaar, Michael Corrente, Googy Gress, Andre Rosey Brown, Mike Cerrone, Lorri Bagley, Zen Gesner, Willie Garson, Sydney J. Bartholomew Jr.

Roy Munson bol veľký šampión v bowlingu. Ešte si ani nestihol poriadne užiť slávu a uznanie a už urobil chybu, ktorá ho stála sľubnú kariéru. Najbližších sedemnásť rokov prežil predávaním v obchode s bowlingovym vybavením, keď tu stretol mladého Ishmaela, ktorý, ako sa zdá, je rodený šampión. To je šanca, na akú čakal a netrvá dlho, kým je samotný Ishmael presvedčený, že Roy je tým najlepším trénerom, akého si mohol želať...

INFO:
kód:
Format                          : AVI
Format/Info                      : Audio Video Interleave
File size                        : 701 MiB
Duration                        : 1h 48mn
Overall bit rate                : 901 Kbps

Video
ID                              : 0
Format                          : MPEG-4 Visual
Format profile                  : Simple@L1
Format settings, BVOP            : No
Format settings, QPel            : No
Format settings, GMC            : No warppoints
Format settings, Matrix          : Default (H.263)
Codec ID                        : DIVX
Codec ID/Info                    : Project Mayo
Codec ID/Hint                    : DivX 4
Duration                        : 1h 48mn
Bit rate                        : 765 Kbps
Width                            : 592 pixels
Height                          : 336 pixels
Display aspect ratio            : 16:9
Frame rate                      : 23.976 fps
Color space                      : YUV
Chroma subsampling              : 4:2:0
Bit depth                        : 8 bits
Scan type                        : Progressive
Compression mode                : Lossy
Bits/(Pixel*Frame)              : 0.160
Stream size                      : 594 MiB (85%)
Writing library                  : Lavc51.48.0

Audio
ID                              : 1
Format                          : MPEG Audio
Format version                  : Version 1
Format profile                  : Layer 3
Mode                            : Joint stereo
Mode extension                  : MS Stereo
Codec ID                        : 55
Codec ID/Hint                    : MP3
Duration                        : 1h 48mn
Bit rate mode                    : Constant
Bit rate                        : 128 Kbps
Channel(s)                      : 2 channels
Sampling rate                    : 48.0 KHz
Compression mode                : Lossy
Stream size                      : 99.5 MiB (14%)
Alignment                        : Aligned on interleaves
Interleave, duration            : 42 ms (1.00 video frame)

DOWNLOAD:

hellshare

kód:
http://download.hellshare.sk/krali-bowlingu-1996-avi/3587261

upnito.sk

kód:
http://www.upnito.sk/subor/11aca24b3ee13f62d1a5a7b0573ea33b.html

quickshare.cz
kód:
http://www.quickshare.cz/stahnout-soubor/605272:krali-bowlingu-1996-avi_701MB

PASS:no
Návrat hore Goto down
Zobrazit informácie o autorovi http://warnerfilm.forumn.org
 
Králi bowlingu/Kingpin(1996)
Zobraziť predchádzajúcu tému Zobraziť nasledujúcu tému Návrat hore 
Strana 1 z 1

Povolenie tohoto fóra:Nemôžete odpovedať na témy v tomto fóre.
Vsetko zadarmo :: .::Download filmy::. :: .::Filmy s ceskym a slovenskym dabingom::.-
Prejdi na: