Vsetko zadarmo

Vsetko zadarmo
 
DomovFAQHľadaťRegistráciaZoznam užívateľovUžívateľské skupinyPrihlásenie

Share | 
 

 Král bojovníků / King of fighters, the (2010)

Zobraziť predchádzajúcu tému Zobraziť nasledujúcu tému Goto down 
AutorSpráva
aismen
Mega Uploader
Mega Uploader


Počet príspevkov : 703
Registration date : 16.04.2008

OdoslaťPredmet: Král bojovníků / King of fighters, the (2010)   Ne september 18, 2011 6:06 pm

King of Fighters, The
Král bojovníků


Akční / Sci-Fi
Japonsko / Taiwan / Německo / USA, 2010, 93 min

Režie:Gordon Chan
Hrají:Sean Faris, Maggie Q, Ray Park, Françoise Yip, Will Yun Lee, Hiro Kanagawa

Tři vzácné relikvie zmizely z muzea a několik lidí bylo během krádeže zabito. Pachatelem je Rugal Bernstein, jenž díky těmto třem kouzelným předmětům vládne neomezenou silou. Světská moc jej nemůže nikdy dostihnout. Jsou tu však ještě nepokoření bojovníci, kteří se mu postaví v otevřeném boji během turnaje. Bitva o budoucnost začíná a drsná bojová akce nešetří nikoho!

INFO:
kód:
Format                          : AVI
Format/Info                      : Audio Video Interleave
File size                        : 1.10 GiB
Duration                        : 1h 28mn
Overall bit rate                : 1 770 Kbps
Movie name                      : KRAL_BOJOVNIKU.Title1.DVDRip
Writing application              : Lavf52.33.0
Original source form/Name        : KRAL_BOJOVNIKU

Video
ID                              : 0
Format                          : xvid
Codec ID                        : xvid
Duration                        : 1h 28mn
Bit rate                        : 1 311 Kbps
Width                            : 704 pixels
Height                          : 396 pixels
Display aspect ratio            : 16:9
Frame rate                      : 25.000 fps
Bits/(Pixel*Frame)              : 0.188
Stream size                      : 832 MiB (74%)

Audio
ID                              : 1
Format                          : AC-3
Format/Info                      : Audio Coding 3
Mode extension                  : CM (complete main)
Codec ID                        : 2000
Duration                        : 1h 28mn
Bit rate mode                    : Constant
Bit rate                        : 448 Kbps
Channel(s)                      : 6 channels
Channel positions                : Front: L C R, Side: L R, LFE
Sampling rate                    : 48.0 KHz
Bit depth                        : 16 bits
Compression mode                : Lossy
Stream size                      : 284 MiB (25%)
Alignment                        : Aligned on interleaves
Interleave, duration            : 32 ms (0.80 video frame)
Interleave, preload duration    : 32 ms
DOWNLOAD:
kód:
http://www.upnito.sk/subor/2f2e1d740ddd529d02c12d998952c033.html
http://www.upnito.sk/subor/2efda67f44fc3abf4baf28e88597fd5f.html
kód:

http://download.hellshare.sk/kral-bojovniku-2010-avi/3547544
PASS:
no
Návrat hore Goto down
Zobrazit informácie o autorovi http://warnerfilm.forumn.org
 
Král bojovníků / King of fighters, the (2010)
Zobraziť predchádzajúcu tému Zobraziť nasledujúcu tému Návrat hore 
Strana 1 z 1

Povolenie tohoto fóra:Nemôžete odpovedať na témy v tomto fóre.
Vsetko zadarmo :: .::Download filmy::. :: .::Filmy s ceskym a slovenskym dabingom::.-
Prejdi na: