Vsetko zadarmo

Vsetko zadarmo
 
DomovFAQHľadaťRegistráciaZoznam užívateľovUžívateľské skupinyPrihlásenie

Share | 
 

 Fighter / The Fighter (2010)

Zobraziť predchádzajúcu tému Zobraziť nasledujúcu tému Goto down 
AutorSpráva
aismen
Mega Uploader
Mega Uploader


Počet príspevkov : 703
Registration date : 16.04.2008

OdoslaťPredmet: Fighter / The Fighter (2010)   Ne september 18, 2011 6:04 pm

Fighter
Fighter, The
Fighter


Drama / Sportovní / Životopisný
USA, 2010, 115 min

Režie:David O. Russell
Hudba:Michael Brook
Hrají:Mark Wahlberg, Christian Bale, Amy Adams, Melissa Leo, Jack McGee, Americo Presciutti, Jeffrey Corazzini, Dan Marshall

http://www.csfd.cz/film/230220-fighter/

Hvězdně obsazené biografické drama The Fighter v hlavních rolích s Markem Wahlbergem a Christianem Balem vypráví skutečný příběh o nepravděpodobné cestě Mickyho Warda za boxerským titulem v kategorii velterovy váhy. V jeho rockyovské cestě jej vedl nevlastní bratr Dicky, bývalý šampión, který kdysi úspěšnou kariéru vyměnil za drogy a kriminální činnost. Touha porazit soupeře v ringu se mění i v boj za rodinu a vlastní hrdost.

INFO:
kód:
Format                          : AVI
Format/Info                      : Audio Video Interleave
File size                        : 847 MiB
Duration                        : 1h 55mn
Overall bit rate                : 1 024 Kbps
Writing application              : VirtualDubMod 1.5.10.2 (build 2540/release)
Writing library                  : VirtualDubMod build 2540/release

Video
ID                              : 0
Format                          : MPEG-4 Visual
Format profile                  : Advanced Simple@L5
Format settings, BVOP            : 2
Format settings, QPel            : No
Format settings, GMC            : No warppoints
Format settings, Matrix          : Default (H.263)
Codec ID                        : XVID
Codec ID/Hint                    : XviD
Duration                        : 1h 55mn
Bit rate                        : 887 Kbps
Width                            : 640 pixels
Height                          : 272 pixels
Display aspect ratio            : 2.35:1
Frame rate                      : 23.976 fps
Color space                      : YUV
Chroma subsampling              : 4:2:0
Bit depth                        : 8 bits
Scan type                        : Progressive
Compression mode                : Lossy
Bits/(Pixel*Frame)              : 0.212
Stream size                      : 733 MiB (87%)
Writing library                  : XviD 1.2.1 (UTC 2008-12-04)

Audio
ID                              : 1
Format                          : MPEG Audio
Format version                  : Version 1
Format profile                  : Layer 3
Mode                            : Joint stereo
Mode extension                  : MS Stereo
Codec ID                        : 55
Codec ID/Hint                    : MP3
Duration                        : 1h 55mn
Bit rate mode                    : Constant
Bit rate                        : 128 Kbps
Channel(s)                      : 2 channels
Sampling rate                    : 48.0 KHz
Compression mode                : Lossy
Delay relative to video          : 24ms
Stream size                      : 106 MiB (13%)
Alignment                        : Aligned on interleaves
Interleave, duration            : 42 ms (1.00 video frame)
Interleave, preload duration    : 504 ms

DOWNLOAD:

hellshare

kód:
http://download.hellshare.sk/fighter-2010-avi/3611797

upnito.sk

kód:
http://www.upnito.sk/subor/01b2de1d5da481e28d00fed5304c569d.html

quickshare.cz
kód:
http://www.quickshare.cz/stahnout-soubor/608021:fighter-2010-avi_847MB

PASS:no
Návrat hore Goto down
Zobrazit informácie o autorovi http://warnerfilm.forumn.org
 
Fighter / The Fighter (2010)
Zobraziť predchádzajúcu tému Zobraziť nasledujúcu tému Návrat hore 
Strana 1 z 1

Povolenie tohoto fóra:Nemôžete odpovedať na témy v tomto fóre.
Vsetko zadarmo :: .::Download filmy::. :: .::Filmy s ceskym a slovenskym dabingom::.-
Prejdi na: