Vsetko zadarmo

Vsetko zadarmo
 
DomovFAQHľadaťRegistráciaZoznam užívateľovUžívateľské skupinyPrihlásenie

Share | 
 

 Dom hrôzy / Walled In (2009)

Zobraziť predchádzajúcu tému Zobraziť nasledujúcu tému Goto down 
AutorSpráva
aismen
Mega Uploader
Mega Uploader


Počet príspevkov : 703
Registration date : 16.04.2008

OdoslaťPredmet: Dom hrôzy / Walled In (2009)   Ne september 18, 2011 6:00 pm

Dom hrôzy
Walled In
Les emmurés



Horor / Thriller
USA / Francie / Kanada, 2009, 100 min

Režie:Gilles Paquet-Brenner
Hrají:Mischa Barton, Cameron Bright, Deborah Kara Unger, Pascal Greggory

http://www.csfd.cz/film/254738-zazdena/

Mladá inžinierka Sam Walczaková len nedávno doštudovala na technickej univerzite. Na oslave promócií jej dá otec, majiteľ demolačnej firmy, svojský dar – má dohliadnuť na demoláciu starej budovy, ktorá je doslova uprostred ničoho. Ak akciu dovedie do úspešného konca, stane sa jeho partnerkou. Sam teda odcestuje do vzdialenej lokácie, aby riadila na demolačné práce domu Malestrazza, ktorý je pomenovaný podľa svojho architekta. Čoskoro však odhalí hrozné tajomstvo, ktoré záhadný dom skrýva. Jeho bývalí nájomníci sa totiž stali obeťami brutálneho vraha, ktorý ich zaživa pochoval v stenách domu. Teraz musí byť pred zabijakom o krok napred, inak skončí ako jeho predchádzajúce obete...

INFO:
kód:
Format                          : AVI
Format/Info                      : Audio Video Interleave
File size                        : 667 MiB
Duration                        : 1h 26mn
Overall bit rate                : 1 075 Kbps
Writing library                  : MPlayer

Video
ID                              : 0
Format                          : MPEG-4 Visual
Format profile                  : Advanced Simple@L5
Format settings, BVOP            : 2
Format settings, QPel            : No
Format settings, GMC            : No warppoints
Format settings, Matrix          : Default (H.263)
Codec ID                        : XVID
Codec ID/Hint                    : XviD
Duration                        : 1h 26mn
Bit rate                        : 945 Kbps
Width                            : 640 pixels
Height                          : 352 pixels
Display aspect ratio            : 16:9
Frame rate                      : 25.000 fps
Original frame rate              : 23.976 fps
Color space                      : YUV
Chroma subsampling              : 4:2:0
Bit depth                        : 8 bits
Scan type                        : Progressive
Compression mode                : Lossy
Bits/(Pixel*Frame)              : 0.168
Stream size                      : 586 MiB (88%)
Writing library                  : XviD 1.2.1 (UTC 2008-12-04)

Audio
ID                              : 1
Format                          : MPEG Audio
Format version                  : Version 1
Format profile                  : Layer 3
Mode                            : Joint stereo
Mode extension                  : MS Stereo
Codec ID                        : 55
Codec ID/Hint                    : MP3
Duration                        : 1h 24mn
Bit rate mode                    : Constant
Bit rate                        : 128 Kbps
Channel(s)                      : 2 channels
Sampling rate                    : 48.0 KHz
Compression mode                : Lossy
Delay relative to video          : 1s 160ms
Stream size                      : 77.6 MiB (12%)
Alignment                        : Split accross interleaves
Interleave, duration            : 512 ms (12.79 video frames)
Interleave, preload duration    : 500 ms
Writing library                  : LAME3.98b

DOWNLOAD:

hellshare

kód:
http://download.hellshare.sk/dom-hrozy-avi/3611785

upnito.sk

kód:
http://www.upnito.sk/subor/e56cff0982b6c5348877615d60d55dbc.html

quickshare.cz
kód:
http://www.quickshare.cz/stahnout-soubor/608018:dom-hrozy-avi_667MB

PASS:no
Návrat hore Goto down
Zobrazit informácie o autorovi http://warnerfilm.forumn.org
 
Dom hrôzy / Walled In (2009)
Zobraziť predchádzajúcu tému Zobraziť nasledujúcu tému Návrat hore 
Strana 1 z 1

Povolenie tohoto fóra:Nemôžete odpovedať na témy v tomto fóre.
Vsetko zadarmo :: .::Download filmy::. :: .::Filmy s ceskym a slovenskym dabingom::.-
Prejdi na: