Vsetko zadarmo

Vsetko zadarmo
 
DomovFAQHľadaťRegistráciaZoznam užívateľovUžívateľské skupinyPrihlásenie

Share | 
 

 Dokonalý džentlmen / Distinguished Gentleman, The (1992)

Zobraziť predchádzajúcu tému Zobraziť nasledujúcu tému Goto down 
AutorSpráva
aismen
Mega Uploader
Mega Uploader


Počet príspevkov : 703
Registration date : 16.04.2008

OdoslaťPredmet: Dokonalý džentlmen / Distinguished Gentleman, The (1992)   Ne september 18, 2011 5:59 pm

Distinguished Gentleman, The
Dokonalý džentlmen


Komedie
USA, 1992, 112 min

http://www.csfd.cz/film/12325-dokonaly-dzentlmen/

Režie:Jonathan Lynn
Hudba:Randy Edelman
Hrají:Eddie Murphy, Lane Smith, Sheryl Lee Ralph, Joe Don Baker, Victoria Rowell, Kevin McCarthy, Charles S. Dutton, Chi McBride, Noble Willingham, Daniel Benzali, James Garner, Brad Koepenick, Marty Kaplan, Daniel Petrie Jr., Della Reese

Thomas Jefferson Johnson (Eddie Murphy) je malým podvodníčkem. Když se ale dozví o smrti kongresmana Jeffa Johnsona, dostane nápad, jak provést největší podvod všech dob. Využije toho, že se jmenuje podobně jako zesnulý kongresman, začne s volební kampaní ("Jeff Johnson - Jméno, které znáte!") a nemožné se stane skutkem - je zvolen do amerického kongresu! A proč to všechno? Thomas se totiž domnívá, že teprve jako člen kongresu bude moci rozjet své podvody v patřičném měřítku. Skutečnost ale překoná jeho nejsmělejší představy. Než se stačí v kongresu rozkoukat, ocitá se v kolotoči velké politiky, velkých průmyslníků a velkých peněz. I na Thomase, který se nikdy poctivě neživil, je toho trochu moc. A poznenáhlu dospěje k rozhodnutí, že když už se jednou do kongresu dostal, udělá tu trochu pořádek. Koneckonců, má přece sloužit svým voličům. A jestli při tom navíc získá srdce krásné dívky, tím lépe...

INFO:
kód:
Format                          : AVI
Format/Info                      : Audio Video Interleave
File size                        : 1.37 GiB
Duration                        : 1h 47mn
Overall bit rate                : 1 816 Kbps
Writing application              : VirtualDubMod 1.5.4.1 (build 2178/release)
Writing library                  : VirtualDubMod build 2178/release

Video
ID                              : 0
Format                          : MPEG-4 Visual
Format profile                  : Advanced Simple@L5
Format settings, BVOP            : 1
Format settings, QPel            : No
Format settings, GMC            : No warppoints
Format settings, Matrix          : Custom
Codec ID                        : XVID
Codec ID/Hint                    : XviD
Duration                        : 1h 47mn
Bit rate                        : 1 618 Kbps
Width                            : 704 pixels
Height                          : 384 pixels
Display aspect ratio            : 16:9
Frame rate                      : 25.000 fps
Color space                      : YUV
Chroma subsampling              : 4:2:0
Bit depth                        : 8 bits
Scan type                        : Progressive
Compression mode                : Lossy
Bits/(Pixel*Frame)              : 0.239
Stream size                      : 1.22 GiB (89%)
Writing library                  : XviD 1.2.1 (UTC 2008-12-04)

Audio
ID                              : 1
Format                          : AC-3
Format/Info                      : Audio Coding 3
Mode extension                  : CM (complete main)
Codec ID                        : 2000
Duration                        : 1h 47mn
Bit rate mode                    : Constant
Bit rate                        : 192 Kbps
Channel(s)                      : 2 channels
Channel positions                : Front: L R
Sampling rate                    : 48.0 KHz
Bit depth                        : 16 bits
Compression mode                : Lossy
Stream size                      : 148 MiB (11%)
Alignment                        : Split accross interleaves
Interleave, duration            : 96 ms (2.40 video frames)
Interleave, preload duration    : 96 ms
Language                        : Czech

DOWNLOAD:

hellshare

kód:
http://download.hellshare.sk/dokonaly-dzentlmen-1992-avi/3587226

quickshare.cz
kód:
http://www.quickshare.cz/stahnout-soubor/605271:dokonaly-dzentlmen-1992-avi_1400MB

PASS:no
Návrat hore Goto down
Zobrazit informácie o autorovi http://warnerfilm.forumn.org
 
Dokonalý džentlmen / Distinguished Gentleman, The (1992)
Zobraziť predchádzajúcu tému Zobraziť nasledujúcu tému Návrat hore 
Strana 1 z 1

Povolenie tohoto fóra:Nemôžete odpovedať na témy v tomto fóre.
Vsetko zadarmo :: .::Download filmy::. :: .::Filmy s ceskym a slovenskym dabingom::.-
Prejdi na: