Vsetko zadarmo

Vsetko zadarmo
 
DomovFAQHľadaťRegistráciaZoznam užívateľovUžívateľské skupinyPrihlásenie

Share | 
 

 Dalších 48 hodin / Another 48 Hrs (1990)

Zobraziť predchádzajúcu tému Zobraziť nasledujúcu tému Goto down 
AutorSpráva
aismen
Mega Uploader
Mega Uploader


Počet príspevkov : 703
Registration date : 16.04.2008

OdoslaťPredmet: Dalších 48 hodin / Another 48 Hrs (1990)   Ne september 18, 2011 5:58 pm

Ďalších 48 hodín
Another 48 Hrs.
Dalších 48 hodin


Krimi / Akční / Drama / Komedie
USA, 1990, 93 min

http://www.csfd.cz/film/4331-dalsich-48-hodin/

Režie:Walter Hill
Hudba:James Horner
Hrají:Eddie Murphy, Nick Nolte, Brion James, Kevin Tighe, Ed O'Ross, David Anthony Marshall, Andrew Divoff, Bernie Casey, Tisha Campbell-Martin, Felice Orlandi, Nancy Everhard, Shauna O'Brien


Inspektor Jack Cates zasahuje u benzinové pumpy, přičemž dojde k zastřelení jednoho muže a nakonec k výbuchu celé čerpací stanice. Musí se pak zodpovídat před komisí a hrozí mu vězení. Pravda může vyjít na povrch, pokud se mu podaří najít drogového bosse Eismana, a tak se okamžitě pouští do pátrání. Navštíví ve vězení Reggieho, který byl s Eismanem zapleten, a snaží se ho přesvědčit ke spolupráci. Marně. Po propuštění však Reggie usoudí, že bude rozumné spojit s Jackem síly, protože na něj čekají najatí zabijáci...

INFO:
kód:
Format                          : AVI
Format/Info                      : Audio Video Interleave
File size                        : 696 MiB
Duration                        : 1h 31mn
Overall bit rate                : 1 065 Kbps
Video
ID                              : 0
Format                          : AVC
Format/Info                      : Advanced Video Codec
Format profile                  : Main@L5.1
Format settings, CABAC          : Yes
Format settings, ReFrames        : 2 frames
Format settings, GOP            : M=3, N=17
Codec ID                        : H264
Duration                        : 1h 31mn
Bit rate                        : 954 Kbps
Width                            : 672 pixels
Height                          : 368 pixels
Display aspect ratio            : 16:9
Frame rate                      : 25.000 fps
Color space                      : YUV
Chroma subsampling              : 4:2:0
Bit depth                        : 8 bits
Scan type                        : Progressive
Bits/(Pixel*Frame)              : 0.154
Stream size                      : 627 MiB (90%)
Writing library                  : x264 core 58 svn-736bm
Encoding settings                : cabac=1 / ref=1 / deblock=1:0:0 / analyse=0x1:0x131 / me=hex / subme=5 / brdo=0 / mixed_ref=0 / me_range=16 / chroma_me=1 / trellis=1 / 8x8dct=0 / cqm=0 / deadzone=21,11 / chroma_qp_offset=0 / threads=2 / nr=0 / decimate=1 / mbaff=0 / bframes=2 / b_pyramid=0 / b_adapt=1 / b_bias=0 / direct=1 / wpredb=1 / bime=0 / keyint=250 / keyint_min=25 / scenecut=40(pre) / rc=abr / bitrate=954 / ratetol=1.0 / rceq='blurCplx^(1-qComp)' / qcomp=0.60 / qpmin=10 / qpmax=51 / qpstep=4 / ip_ratio=1.40 / pb_ratio=1.30

Audio
ID                              : 1
Format                          : MPEG Audio
Format version                  : Version 1
Format profile                  : Layer 3
Mode                            : Joint stereo
Mode extension                  : MS Stereo
Codec ID                        : 55
Codec ID/Hint                    : MP3
Duration                        : 1h 31mn
Bit rate mode                    : Constant
Bit rate                        : 96.0 Kbps
Channel(s)                      : 2 channels
Sampling rate                    : 48.0 KHz
Compression mode                : Lossy
Stream size                      : 62.8 MiB (9%)
Alignment                        : Aligned on interleaves
Interleave, duration            : 40 ms (1.00 video frame)
Interleave, preload duration    : 504 ms


DOWNLOAD:

hellshare

kód:
http://download.hellshare.sk/dalsich-48-hodin-avi/3587203

upnito.sk

kód:
http://www.upnito.sk/subor/44de4521d14e274f9a5d3fbb05304aa7.html

quickshare.cz
kód:
http://www.quickshare.cz/stahnout-soubor/605268:dalsich-48-hodin-avi_696MB

PASS:no
Návrat hore Goto down
Zobrazit informácie o autorovi http://warnerfilm.forumn.org
 
Dalších 48 hodin / Another 48 Hrs (1990)
Zobraziť predchádzajúcu tému Zobraziť nasledujúcu tému Návrat hore 
Strana 1 z 1

Povolenie tohoto fóra:Nemôžete odpovedať na témy v tomto fóre.
Vsetko zadarmo :: .::Download filmy::. :: .::Filmy s ceskym a slovenskym dabingom::.-
Prejdi na: