Vsetko zadarmo

Vsetko zadarmo
 
DomovFAQHľadaťRegistráciaZoznam užívateľovUžívateľské skupinyPrihlásenie

Share | 
 

 Ďábelská brigáda / The Devil's Brigade (1968)

Zobraziť predchádzajúcu tému Zobraziť nasledujúcu tému Goto down 
AutorSpráva
aismen
Mega Uploader
Mega Uploader


Počet príspevkov : 703
Registration date : 16.04.2008

OdoslaťPredmet: Ďábelská brigáda / The Devil's Brigade (1968)   Ne september 18, 2011 5:56 pm

Devil's Brigade, The
Ďábelská brigáda




Válečný
USA, 1968, 130 min

http://www.csfd.cz/film/24528-dabelska-brigada/

Režie:Andrew V. McLaglen
Hudba:Alex North
Hrají:William Holden, Cliff Robertson, Vince Edwards, Andrew Prine, Jeremy Slate, Claude Akins, Richard Jaeckel, Luke Askew, Carroll O'Connor, Dana Andrews, Patric Knowles, Wilhelm von Homburg, Hal Needham, Michael Rennie, Karl-Otto Alberty

Do vzniku tejto brigády nebol pojem špeciálne jednotky vôbec známy. V Írsku vznikne výcvikové stredisko špeciálnej, zmiešanej americko-kanadskej jednotky. Veliteľ táboru je postavený pred ťažkú úlohu, pomocov profesionálnej kanadskej jednotky, má z amerických dezertérov a bitkárov vytvoriť elitnú americkú bojovú jednotku, neskôr známu ako zelené barety. Napriek prvotným rozporm medzi kaňadanmi a američanmi, vznikne pevné priateľské puto a bojový duch, ktorý sa prejaví už pri prvej bojovej akcii, keď jednotka bez jediného výstrelu odzbrojí celú nemeckú posádku v talianskom meste. Nemci zo strachu dajú meno tejto jednotke Diabolská brigáda

INFO:
kód:
Format                          : AVI
Format/Info                      : Audio Video Interleave
File size                        : 1.05 GiB
Duration                        : 2h 11mn
Overall bit rate                : 1 137 Kbps

Video
ID                              : 0
Format                          : MPEG-4 Visual
Format profile                  : Simple@L1
Format settings, BVOP            : No
Format settings, QPel            : No
Format settings, GMC            : No warppoints
Format settings, Matrix          : Default (H.263)
Codec ID                        : DIVX
Codec ID/Info                    : Project Mayo
Codec ID/Hint                    : DivX 4
Duration                        : 2h 11mn
Bit rate                        : 1 000 Kbps
Width                            : 720 pixels
Height                          : 480 pixels
Display aspect ratio            : 3:2
Frame rate                      : 23.976 fps
Standard                        : NTSC
Color space                      : YUV
Chroma subsampling              : 4:2:0
Bit depth                        : 8 bits
Scan type                        : Progressive
Compression mode                : Lossy
Bits/(Pixel*Frame)              : 0.121
Stream size                      : 943 MiB (88%)
Writing library                  : Lavc51.9.0

Audio
ID                              : 1
Format                          : MPEG Audio
Format version                  : Version 1
Format profile                  : Layer 3
Mode                            : Joint stereo
Mode extension                  : MS Stereo
Codec ID                        : 55
Codec ID/Hint                    : MP3
Duration                        : 2h 11mn
Bit rate mode                    : Constant
Bit rate                        : 128 Kbps
Channel(s)                      : 2 channels
Sampling rate                    : 48.0 KHz
Compression mode                : Lossy
Stream size                      : 121 MiB (11%)
Alignment                        : Aligned on interleaves
Interleave, duration            : 42 ms (1.00 video frame)


DOWNLOAD:

hellshare

kód:
http://download.hellshare.sk/dabelska-brigada-1968-avi/3578873

upnito.sk

kód:
http://www.upnito.sk/subor/55a43313db9a495cee17aa4564fa96f5.html
http://www.upnito.sk/subor/4692b05d40a1d993d4cd1c9bbf971a75.html

rapidshare.com

kód:
https://rapidshare.com/files/536884099/Dabelska_brigada_1968.avi


quickshare.cz
kód:
http://www.quickshare.cz/stahnout-soubor/604532:dabelska-brigada-1968-avi_1073MB

PASS:no
Návrat hore Goto down
Zobrazit informácie o autorovi http://warnerfilm.forumn.org
 
Ďábelská brigáda / The Devil's Brigade (1968)
Zobraziť predchádzajúcu tému Zobraziť nasledujúcu tému Návrat hore 
Strana 1 z 1

Povolenie tohoto fóra:Nemôžete odpovedať na témy v tomto fóre.
Vsetko zadarmo :: .::Download filmy::. :: .::Filmy s ceskym a slovenskym dabingom::.-
Prejdi na: