Vsetko zadarmo

Vsetko zadarmo
 
DomovFAQHľadaťRegistráciaZoznam užívateľovUžívateľské skupinyPrihlásenie

Share | 
 

 Rodina v ohrožení / Crash Site (2011)

Zobraziť predchádzajúcu tému Zobraziť nasledujúcu tému Goto down 
AutorSpráva
aismen
Mega Uploader
Mega Uploader


Počet príspevkov : 703
Registration date : 16.04.2008

OdoslaťPredmet: Rodina v ohrožení / Crash Site (2011)   Ne september 18, 2011 5:54 pm

Crash Site
Rodina v ohrožení


Drama / Horor / Thriller
USA / Kanada, 2011, 90 min

Režie:Jason Bourque
Hrají:Charisma Carpenter, Katie Findlay, Sebastian Spence, Kevan Ohtsji

http://www.csfd.cz/film/299749-rodina-v-ohrozeni/

Daniel Sanders žije pouze svou prací a díky tomu pomalu, ale jistě ztrácí svoji rodinu. Jeho manželství se dostane do problému a tak se Daniel rozhodne vzít svou ženu Ritu, dceru Frances a jejího přítele Matthewa na dovolenou. Během dovolené se Daniel s Ritou vydají na několik dnů kempovat a doufají, že si užijí romantiku. Dojde k nehodě, oba jsou zraněni, bez telefonů a začíná boj o přežití..

INFO:
kód:
Format                          : AVI
Format/Info                      : Audio Video Interleave
Format profile                  : OpenDML
File size                        : 1.10 GiB
Duration                        : 1h 28mn
Overall bit rate                : 1 769 Kbps
Writing application              : MEncoder SVN-r30881(20100311-gcc4.3.3)
Writing library                  : MPlayer

Video
ID                              : 0
Format                          : MPEG-4 Visual
Format profile                  : Advanced Simple@L5
Format settings, BVOP            : 2
Format settings, QPel            : No
Format settings, GMC            : No warppoints
Format settings, Matrix          : Default (H.263)
Codec ID                        : XVID
Codec ID/Hint                    : XviD
Duration                        : 1h 28mn
Bit rate                        : 1 625 Kbps
Width                            : 720 pixels
Height                          : 400 pixels
Display aspect ratio            : 16:9
Frame rate                      : 25.000 fps
Color space                      : YUV
Chroma subsampling              : 4:2:0
Bit depth                        : 8 bits
Scan type                        : Progressive
Compression mode                : Lossy
Bits/(Pixel*Frame)              : 0.226
Stream size                      : 1.01 GiB (92%)
Writing library                  : XviD 1.2.1 (UTC 2008-12-04)

Audio
ID                              : 1
Format                          : MPEG Audio
Format version                  : Version 1
Format profile                  : Layer 3
Mode                            : Joint stereo
Mode extension                  : MS Stereo
Codec ID                        : 55
Codec ID/Hint                    : MP3
Duration                        : 1h 28mn
Bit rate mode                    : Constant
Bit rate                        : 128 Kbps
Channel(s)                      : 2 channels
Sampling rate                    : 44.1 KHz
Compression mode                : Lossy
Delay relative to video          : 80ms
Stream size                      : 2.45 MiB (0%)
Alignment                        : Aligned on interleaves
Interleave, duration            : 865 ms (21.63 video frames)
Interleave, preload duration    : 522 ms

DOWNLOAD:

hellshare

kód:
http://download.hellshare.sk/crash-site-2011-avi/3611772

upnito.sk

kód:
http://www.upnito.sk/subor/0649d89bf9ade4ab81ea776f6bcc3524.html
http://www.upnito.sk/subor/9561e5fca7b0f321e6d067c12174c745.html

quickshare.cz
kód:
http://www.quickshare.cz/stahnout-soubor/608024:crash-site-2011-avi_1123MB

PASS:no
Návrat hore Goto down
Zobrazit informácie o autorovi http://warnerfilm.forumn.org
 
Rodina v ohrožení / Crash Site (2011)
Zobraziť predchádzajúcu tému Zobraziť nasledujúcu tému Návrat hore 
Strana 1 z 1

Povolenie tohoto fóra:Nemôžete odpovedať na témy v tomto fóre.
Vsetko zadarmo :: .::Download filmy::. :: .::Filmy s ceskym a slovenskym dabingom::.-
Prejdi na: