Vsetko zadarmo

Vsetko zadarmo
 
DomovFAQHľadaťRegistráciaZoznam užívateľovUžívateľské skupinyPrihlásenie

Share | 
 

 Arthur (2011)

Zobraziť predchádzajúcu tému Zobraziť nasledujúcu tému Goto down 
AutorSpráva
aismen
Mega Uploader
Mega Uploader


Počet príspevkov : 703
Registration date : 16.04.2008

OdoslaťPredmet: Arthur (2011)   Ne september 18, 2011 5:50 pm

Arthur
Arthur



Komedie
USA, 2011, 110 min

http://www.csfd.cz/film/276998-arthur/

Režie:Jason Winer
Hrají:Russell Brand, Jennifer Garner, Helen Mirren, Greta Gerwig, Nick Nolte, Luis Guzmán, Jennifer Butler

Russell Brand vytvořil po svém postavu roztomilého miliardáře Arthura Bacha, nezodpovědného sympaťáka, který celý život spoléhá na to, že ho z maléru vždycky dostanou dvě věci: jeho obrovské bohatství a celoživotní chůva Hobsonová (nositelka Oscara ®* Helen Mirren). Teď ho ale čeká osudová výzva: musí si vybrat mezi domluveným manželstvím s ambiciózní manažerkou Susan (Jennifer Garner), které by mu pojistilo jeho luxusní životní styl, a nejistou budoucností s tím, co se za peníze koupit nedá - jeho pravou láskou Naomi (Greta Gerwig). S nekonvenční pomocí Hobsonové podstoupí Arthur nejdražší riziko svého života a v nové verzi oscarové®* romantické komedie se naučí, co znamená být mužem.

INFO:
kód:
Format                          : AVI
Format/Info                      : Audio Video Interleave
File size                        : 717 MiB
Duration                        : 1h 49mn
Overall bit rate                : 911 Kbps
Writing application              : VirtualDubMod 1.5.10.2 (build 2540/release)
Writing library                  : VirtualDubMod build 2540/release

Video
ID                              : 0
Format                          : MPEG-4 Visual
Format profile                  : Advanced Simple@L5
Format settings, BVOP            : 4
Format settings, QPel            : No
Format settings, GMC            : No warppoints
Format settings, Matrix          : Default (H.263)
Muxing mode                      : Packed bitstream
Codec ID                        : XVID
Codec ID/Hint                    : XviD
Duration                        : 1h 49mn
Bit rate                        : 774 Kbps
Width                            : 656 pixels
Height                          : 368 pixels
Display aspect ratio            : 16:9
Frame rate                      : 23.976 fps
Color space                      : YUV
Chroma subsampling              : 4:2:0
Bit depth                        : 8 bits
Scan type                        : Progressive
Compression mode                : Lossy
Bits/(Pixel*Frame)              : 0.134
Stream size                      : 609 MiB (85%)
Writing library                  : XviD 1.2.1 (UTC 2008-12-04)

Audio
ID                              : 1
Format                          : MPEG Audio
Format version                  : Version 1
Format profile                  : Layer 3
Mode                            : Joint stereo
Mode extension                  : MS Stereo
Codec ID                        : 55
Codec ID/Hint                    : MP3
Duration                        : 1h 49mn
Bit rate mode                    : Constant
Bit rate                        : 128 Kbps
Channel(s)                      : 2 channels
Sampling rate                    : 48.0 KHz
Compression mode                : Lossy
Delay relative to video          : 24ms
Stream size                      : 101 MiB (14%)
Alignment                        : Aligned on interleaves
Interleave, duration            : 42 ms (1.00 video frame)
Interleave, preload duration    : 504 ms
DOWNLOAD:

hellshare
kód:
http://download.hellshare.sk/arthur-2011-avi/3552873

upnito.sk
kód:
http://www.upnito.sk/subor/3f991f8dad5ffe5d9d29376c56048223.html

ulozto.sk
kód:
http://www.ulozto.sk/10201499/arthur-2011-avi

x7.to
kód:
http://x7.to/68qz0m

filefactory.com
kód:
http://www.filefactory.com/file/cd8055b/n/Arthur_2011.avi

rapidshare.com
kód:
https://rapidshare.com/files/2527959770/Arthur_2011.avi

PASS:
no
Návrat hore Goto down
Zobrazit informácie o autorovi http://warnerfilm.forumn.org
aismen
Mega Uploader
Mega Uploader


Počet príspevkov : 703
Registration date : 16.04.2008

OdoslaťPredmet: Re: Arthur (2011)   St september 21, 2011 7:50 pm

Arthur
Arthur



Komedie
USA, 2011, 110 min

http://www.csfd.cz/film/276998-arthur/

Režie:Jason Winer
Hrají:Russell Brand, Jennifer Garner, Helen Mirren, Greta Gerwig, Nick Nolte, Luis Guzmán, Jennifer Butler

Russell Brand vytvořil po svém postavu roztomilého miliardáře Arthura Bacha, nezodpovědného sympaťáka, který celý život spoléhá na to, že ho z maléru vždycky dostanou dvě věci: jeho obrovské bohatství a celoživotní chůva Hobsonová (nositelka Oscara ®* Helen Mirren). Teď ho ale čeká osudová výzva: musí si vybrat mezi domluveným manželstvím s ambiciózní manažerkou Susan (Jennifer Garner), které by mu pojistilo jeho luxusní životní styl, a nejistou budoucností s tím, co se za peníze koupit nedá - jeho pravou láskou Naomi (Greta Gerwig). S nekonvenční pomocí Hobsonové podstoupí Arthur nejdražší riziko svého života a v nové verzi oscarové®* romantické komedie se naučí, co znamená být mužem.


euroshare.eu

kód:
http://euroshare.eu/file/1507307/arthur_2011.avi

no pass
Návrat hore Goto down
Zobrazit informácie o autorovi http://warnerfilm.forumn.org
 
Arthur (2011)
Zobraziť predchádzajúcu tému Zobraziť nasledujúcu tému Návrat hore 
Strana 1 z 1

Povolenie tohoto fóra:Nemôžete odpovedať na témy v tomto fóre.
Vsetko zadarmo :: .::Download filmy::. :: .::Filmy s ceskym a slovenskym dabingom::.-
Prejdi na: