Vsetko zadarmo

Vsetko zadarmo
 
DomovFAQHľadaťRegistráciaZoznam užívateľovUžívateľské skupinyPrihlásenie

Share | 
 

 Armageddon (1998)

Zobraziť predchádzajúcu tému Zobraziť nasledujúcu tému Goto down 
AutorSpráva
aismen
Mega Uploader
Mega Uploader


Počet príspevkov : 703
Registration date : 16.04.2008

OdoslaťPredmet: Armageddon (1998)   Ne september 18, 2011 5:49 pm

Armageddon
Armageddon
Armageddon


Akční / Sci-Fi / Romantický / Katastrofický
USA, 1998, 150 min (Director's cut: 153 min)

http://www.csfd.cz/film/542-armageddon/

Režie:Michael Bay
Hudba:Trevor Rabin, Harry Gregson-Williams
Hrají:Bruce Willis, Billy Bob Thornton, Ben Affleck, Liv Tyler, Will Patton, Steve Buscemi, William Fichtner, Owen Wilson, Michael Clarke Duncan, Peter Stormare, Ken Hudson Campbell, Jessica Steen, Keith David, Chris Ellis, Jason Isaacs, Grayson McCouch, Grace Zabriskie, Eddie Griffin, Stanley Anderson, Udo Kier, Seiko Matsuda, Mark Boone Junior, Michael Bay, Erik Per Sullivan, Lawrence Tierney, Gedde Watanabe, Jim Maniaci, Andy Milder, Frederick Weller, Googy Gress, Matt Malloy, Jim Fitzpatrick, Charlton Heston, Patrick Richwood, Shawnee Smith, Michael Taliferro, Judith Hoag, Bodhi Elfman, Dina Morrone, Le Ann Cheri', Judi Beecher, Mary Ann Schmidt, Marshall R. Teague, Dwight Hicks


Za osmnáct dní Země přestane existovat, protože se srazí s asteroidem velikosti Texasu. Je bezpodmínečně nutné, co nejdříve přistát na asteroidu, hluboko pod jeho povrch zavrtat silné jaderné nálože, odpálit je a pak se jen modlit, aby to celé pomohlo. Záchrana světa tímto brizantním způsobem je práce jako stvořená pro partu drsných naftařů v čele s Harrym S. Stamperem (Bruce Willis), který zachází s vrtnou plošinou a výbušninami jako neurochirurg s jemným laserovým skalpelem. Astronautický výcvik NASA je rychlý a za pár dní jsou dva raketoplány s jadernými náložemi a samorostlými spasiteli světa na palubě připraveny ke startu. Zvládne Bruce Willis a jeho muži sebevražedně riskantní akci?


INFO:
kód:
Format                          : AVI
Format/Info                      : Audio Video Interleave
File size                        : 957 MiB
Duration                        : 2h 24mn
Overall bit rate                : 925 Kbps
Movie name                      : DVD_VOLUME.Title1.DVDRip
Director                        : Peter
Writing application              : Lavf51.12.2
Original source form/Name        : DVD_VOLUME

Video
ID                              : 0
Format                          : MPEG-4 Visual
Format profile                  : Simple@L3
Format settings, BVOP            : No
Format settings, QPel            : No
Format settings, GMC            : No warppoints
Format settings, Matrix          : Default (H.263)
Codec ID                        : XVID
Codec ID/Hint                    : XviD
Duration                        : 2h 24mn
Bit rate                        : 848 Kbps
Width                            : 656 pixels
Height                          : 368 pixels
Display aspect ratio            : 16:9
Frame rate                      : 25.000 fps
Color space                      : YUV
Chroma subsampling              : 4:2:0
Bit depth                        : 8 bits
Scan type                        : Progressive
Compression mode                : Lossy
Bits/(Pixel*Frame)              : 0.141
Stream size                      : 877 MiB (92%)
Writing library                  : XviD 1.1.2 (UTC 2006-11-01)

Audio
ID                              : 1
Format                          : MPEG Audio
Format version                  : Version 1
Format profile                  : Layer 3
Mode                            : Joint stereo
Mode extension                  : MS Stereo
Codec ID                        : 55
Codec ID/Hint                    : MP3
Duration                        : 2h 24mn
Bit rate mode                    : Constant
Bit rate                        : 64.0 Kbps
Channel(s)                      : 2 channels
Sampling rate                    : 48.0 KHz
Compression mode                : Lossy
Stream size                      : 66.2 MiB (7%)
Alignment                        : Aligned on interleaves
Interleave, duration            : 24 ms (0.60 video frame)

DOWNLOAD:

hellshare

kód:
http://download.hellshare.sk/armageddon-1998-avi/3587182

upnito.sk

kód:
http://www.upnito.sk/subor/9c0f899acf0cc2a1c8da8e915bec79e9.html

quickshare.cz
kód:
http://www.quickshare.cz/stahnout-soubor/605265:armageddon-1998-avi_957MB

PASS:no
Návrat hore Goto down
Zobrazit informácie o autorovi http://warnerfilm.forumn.org
 
Armageddon (1998)
Zobraziť predchádzajúcu tému Zobraziť nasledujúcu tému Návrat hore 
Strana 1 z 1

Povolenie tohoto fóra:Nemôžete odpovedať na témy v tomto fóre.
Vsetko zadarmo :: .::Download filmy::. :: .::Filmy s ceskym a slovenskym dabingom::.-
Prejdi na: