Vsetko zadarmo

Vsetko zadarmo
 
DomovFAQHľadaťRegistráciaZoznam užívateľovUžívateľské skupinyPrihlásenie

Share | 
 

 Apollo 13 (1995)

Zobraziť predchádzajúcu tému Zobraziť nasledujúcu tému Goto down 
AutorSpráva
aismen
Mega Uploader
Mega Uploader


Počet príspevkov : 703
Registration date : 16.04.2008

OdoslaťPredmet: Apollo 13 (1995)   Ne september 18, 2011 5:48 pm

Apollo 13
Apollo 13
Apollo 13


Drama / Dobrodružný / Historický
USA, 1995, 140 min

http://www.csfd.cz/film/4541-apollo-13/

Režie:Ron Howard
Hudba:James Horner
Hrají:Tom Hanks, Bill Paxton, Kevin Bacon, Gary Sinise, Ed Harris, Kathleen Quinlan, Miko Hughes, David Andrews, Chris Ellis, Joe Spano, Xander Berkeley, Clint Howard, Loren Dean, Tom Wood, Googy Gress, Ray McKinnon, Max Grodénchik, Ned Vaughn, Jim Meskimen, Todd Louiso, Walter Cronkite, Austin O'Brien, Roger Corman, Bryce Dallas Howard, Mary Kate Schellhardt, Jack Conley, Meadow Williams, Andy Milder, Thom Barry, Brett Cullen

"Nejúspěšnější neúspěšná" akce v dějinách americké astronautiky se odehrála ve dnech 11. až 17. dubna 1970. Tehdy po pečlivých přípravách, zcela bez povšimnutí veřejnosti, která už podobné lety brala jako samozřejmost, vystartovala k měsíci posádka ve složení Jim Lovell, Fred Haise a Jack Swiger, který na poslední chvíli nahradil kvůli zdravotním potížím původního člena posádky, Kena Mattingliho. První dny letu proběhly hladce, ale pak, 13. dubna se z reproduktorů v řídícím středisku ozvalo legendární "Houstone, máme problém." Utrhla se jedna z nádrží s kyslíkem a poškodila přitom druhou. Začal klesat tlak, objevily se potíže se spojením. Posádka pochopila, že jejich sen, stanout na povrchu měsíce, je ztracen a změnil se v zoufalou bitvu o život. Aby ušetřili vzduch, přesunou se astronauti do přistávacího modulu a pokouší se udržet loď ve směru. V Houstonu je rozhodnuto využít pro návrat gravitační sílu Měsíce a tak astronauty čeká nesmírně obtížný, ne-li nemožný úkol. Obletět s těžce poškozenou lodí Měsíc, vrátit se k Zemi a bezpečně přistát. Celý svět se zatajeným dechem sleduje drama odehrávající se daleko za hranicemi zemské atmosféry.
Film byl nominovaný na Oskara v 9 kategoriích, nakonec se mu podařilo získat dva.


INFO:
kód:
Format                          : AVI
Format/Info                      : Audio Video Interleave
File size                        : 1.37 GiB
Duration                        : 2h 14mn
Overall bit rate                : 1 462 Kbps
Writing application              : VirtualDubMod 1.5.4.1 (build 2178/release)
Writing library                  : VirtualDubMod build 2178/release

Video
ID                              : 0
Format                          : MPEG-4 Visual
Format settings, BVOP            : 1
Format settings, QPel            : No
Format settings, GMC            : No warppoints
Format settings, Matrix          : Default (H.263)
Muxing mode                      : Packed bitstream
Codec ID                        : DX50
Codec ID/Hint                    : DivX 5
Duration                        : 2h 14mn
Bit rate                        : 1 071 Kbps
Width                            : 672 pixels
Height                          : 288 pixels
Display aspect ratio            : 2.35:1
Frame rate                      : 25.000 fps
Color space                      : YUV
Chroma subsampling              : 4:2:0
Bit depth                        : 8 bits
Scan type                        : Progressive
Compression mode                : Lossy
Bits/(Pixel*Frame)              : 0.221
Stream size                      : 1.00 GiB (73%)
Writing library                  : DivX 6.8.2 (UTC 2008-05-17)

Audio
ID                              : 1
Format                          : AC-3
Format/Info                      : Audio Coding 3
Mode extension                  : CM (complete main)
Codec ID                        : 2000
Duration                        : 2h 14mn
Bit rate mode                    : Constant
Bit rate                        : 384 Kbps
Channel(s)                      : 6 channels
Channel positions                : Front: L C R, Side: L R, LFE
Sampling rate                    : 48.0 KHz
Bit depth                        : 16 bits
Compression mode                : Lossy
Stream size                      : 368 MiB (26%)
Alignment                        : Split accross interleaves
Interleave, duration            : 96 ms (2.40 video frames)
Interleave, preload duration    : 96 ms
Language                        : Czech

DOWNLOAD:

hellshare
kód:
http://download.hellshare.sk/apollo-13-avi/3587152

quickshare.cz
kód:
http://www.quickshare.cz/stahnout-soubor/605262:apollo-13-avi_1401MB

PASS:no
Návrat hore Goto down
Zobrazit informácie o autorovi http://warnerfilm.forumn.org
 
Apollo 13 (1995)
Zobraziť predchádzajúcu tému Zobraziť nasledujúcu tému Návrat hore 
Strana 1 z 1

Povolenie tohoto fóra:Nemôžete odpovedať na témy v tomto fóre.
Vsetko zadarmo :: .::Download filmy::. :: .::Filmy s ceskym a slovenskym dabingom::.-
Prejdi na: