Vsetko zadarmo

Vsetko zadarmo
 
DomovFAQHľadaťRegistráciaZoznam užívateľovUžívateľské skupinyPrihlásenie

Share | 
 

 Americká panna / American Virgin (2009)

Zobraziť predchádzajúcu tému Zobraziť nasledujúcu tému Goto down 
AutorSpráva
aismen
Mega Uploader
Mega Uploader


Počet príspevkov : 703
Registration date : 16.04.2008

OdoslaťPredmet: Americká panna / American Virgin (2009)   Ne september 18, 2011 5:47 pm

American Virgin
Americká panna


Komedie
USA, 2009, 98 min

Režie:Clare Kilner
Hrají:Rob Schneider, Jenna Dewan, Chase Ryan Jeffery, Ashley Schneider, Brianne Davis


Priscilla (Jenna Dewan) je obyčejné děvče z normální rodiny, která se snaží vést správný a bohabojný život. Její rodiče jí podporují proti smilství a věří, že první pohlavní styk má být až po svatbě. Priscilla se střetne na koleji se svou novou spolubydlící Naz (Brianne Davis), jež nerespektuje žádná pravidla, kromě jednoho - pořádně se bavit! Jednou však Priscilla nemůže spát, protože jí ruší divoká párty na koleji, kde se zrovna vyskytuje i Ed Curtzman (Rob Schneider) reprezentující a zastupující šílenou šou "Chicks Go Crazy".
Zde se poprvé v životě Priscilla setká s alkoholem a pěkně na to doplatí, posměšky ze stran jejích přátel jsou to nejmenší, protože si vůbec nevybavuje, co vlastně dělala. Nakonec si díky přátelům vezme do hlavy, že opilá a polonahá tancovala před kamerou Eda Curtzmana, natáčející podobné „odvazy“ pěkných děvčat. Vydá se tedy spolu s novými přáteli hledat Eda, aby jim videonahrávku z této noci vydal.

INFO:
kód:
Format                          : AVI
Format/Info                      : Audio Video Interleave
File size                        : 759 MiB
Duration                        : 1h 19mn
Overall bit rate                : 1 340 Kbps
Writing application              : MEncoder SVN-r29352(20090610-gcc4.3.3)
Writing library                  : MPlayer

Video
ID                              : 0
Format                          : MPEG-4 Visual
Format profile                  : Advanced Simple@L5
Format settings, BVOP            : 2
Format settings, QPel            : No
Format settings, GMC            : No warppoints
Format settings, Matrix          : Default (H.263)
Codec ID                        : XVID
Codec ID/Hint                    : XviD
Duration                        : 1h 19mn
Bit rate                        : 1 200 Kbps
Width                            : 720 pixels
Height                          : 576 pixels
Display aspect ratio            : 5:4
Frame rate                      : 25.000 fps
Standard                        : PAL
Color space                      : YUV
Chroma subsampling              : 4:2:0
Bit depth                        : 8 bits
Scan type                        : Progressive
Compression mode                : Lossy
Bits/(Pixel*Frame)              : 0.116
Stream size                      : 680 MiB (90%)
Writing library                  : XviD 1.2.1 (UTC 2008-12-04)

Audio
ID                              : 1
Format                          : MPEG Audio
Format version                  : Version 1
Format profile                  : Layer 3
Mode                            : Joint stereo
Mode extension                  : MS Stereo
Codec ID                        : 55
Codec ID/Hint                    : MP3
Duration                        : 1h 19mn
Bit rate mode                    : Constant
Bit rate                        : 128 Kbps
Channel(s)                      : 2 channels
Sampling rate                    : 44.1 KHz
Compression mode                : Lossy
Delay relative to video          : 40ms
Stream size                      : 72.5 MiB (10%)
Alignment                        : Aligned on interleaves
Interleave, duration            : 26 ms (0.65 video frame)
Interleave, preload duration    : 522 ms

DOWNLOAD:
hellshare
kód:
http://download.hellshare.sk/americka-panna-avi/3552456
upnito.sk
kód:
http://www.upnito.sk/subor/ced7316d6d9f330e582e62bce0eee73d.html
ulozto.sk
kód:
http://www.ulozto.sk/10200254/americka-panna-avi
x7.to
kód:
http://x7.to/bt86gx
filefactory.com
kód:
http://www.filefactory.com/file/cd80c27/n/Americka_panna.avi
rapidshare.com
kód:
https://rapidshare.com/files/123299615/Americka_panna.avi
PASS:
no
Návrat hore Goto down
Zobrazit informácie o autorovi http://warnerfilm.forumn.org
 
Americká panna / American Virgin (2009)
Zobraziť predchádzajúcu tému Zobraziť nasledujúcu tému Návrat hore 
Strana 1 z 1

Povolenie tohoto fóra:Nemôžete odpovedať na témy v tomto fóre.
Vsetko zadarmo :: .::Download filmy::. :: .::Filmy s ceskym a slovenskym dabingom::.-
Prejdi na: