Vsetko zadarmo

Vsetko zadarmo
 
DomovFAQHľadaťRegistráciaZoznam užívateľovUžívateľské skupinyPrihlásenie

Share | 
 

 Americká krása / American Beauty (1999)

Zobraziť predchádzajúcu tému Zobraziť nasledujúcu tému Goto down 
AutorSpráva
aismen
Mega Uploader
Mega Uploader


Počet príspevkov : 703
Registration date : 16.04.2008

OdoslaťPredmet: Americká krása / American Beauty (1999)   Ne september 18, 2011 5:43 pm

Americká krása
American Beauty
Americká krása


Drama
USA, 1999, 117 min

http://www.csfd.cz/film/6654-americka-krasa/

Režie:Sam Mendes
Hudba:Thomas Newman
Hrají:Kevin Spacey, Annette Bening, Thora Birch, Wes Bentley, Mena Suvari, Peter Gallagher, Allison Janney, Chris Cooper, Scott Bakula, Sam Robards, Ara Celi, John Cho, Sue Casey, Amber Smith

Na první pohled jsou Burnhamovi šťastnou rodinou, jejíž život je zalit sluncem. Pohodlný dům, auto kvalitní značky, půvabná dospívající dcera, studující na správné škole, rodiče úspěšní ve svém povolání. Nikdo se tedy nediví, že paní Burnhamová (Annette Bening) je věčně samý úsměv - alespoň na veřejnosti. Ve skutečnosti je ale všechno jinak. Obraz dokonalosti matce Carolyn a dceři Jane neustále kazí otec Lester (Kevin Spacey). Není tím ramenatým, snědým "plejbojem" a co je horší, začíná stále častěji dávat najevo, že se mu nedaří a že je nespokojen se svým životem. Dokud jen odmítá roli, kterou stovky jemu podobných odevzdaně hrají, aby měli klid, je to pro rodinu sice obtížné, ale únosné. Ještě včera nerozhodný a zakřiknutý Lester se ovšem rozhodne "krizi středního věku" řešit nečekaně radikálně. Dojde mu totiž, o co v životě jde: o splnění snů a tužeb, které člověk má. Lester už nikdy nebude ubožák!

INFO:
kód:
Format                          : AVI
Format/Info                      : Audio Video Interleave
File size                        : 1.82 GiB
Duration                        : 1h 56mn
Overall bit rate                : 2 229 Kbps

Video
ID                              : 0
Format                          : MPEG-4 Visual
Format profile                  : Advanced Simple@L5
Format settings, BVOP            : No
Format settings, QPel            : No
Format settings, GMC            : No warppoints
Format settings, Matrix          : Default (H.263)
Codec ID                        : XVID
Codec ID/Hint                    : XviD
Duration                        : 1h 56mn
Bit rate                        : 1 995 Kbps
Width                            : 1 024 pixels
Height                          : 576 pixels
Display aspect ratio            : 16:9
Frame rate                      : 25.000 fps
Color space                      : YUV
Chroma subsampling              : 4:2:0
Bit depth                        : 8 bits
Scan type                        : Progressive
Compression mode                : Lossy
Bits/(Pixel*Frame)              : 0.135
Stream size                      : 1.63 GiB (90%)
Writing library                  : XviD 1.1.2 (UTC 2006-11-01)

Audio
ID                              : 1
Format                          : MPEG Audio
Format version                  : Version 1
Format profile                  : Layer 3
Codec ID                        : 55
Codec ID/Hint                    : MP3
Duration                        : 1h 56mn
Bit rate mode                    : Constant
Bit rate                        : 224 Kbps
Channel(s)                      : 2 channels
Sampling rate                    : 48.0 KHz
Compression mode                : Lossy
Stream size                      : 187 MiB (10%)
Alignment                        : Aligned on interleaves
Interleave, duration            : 40 ms (1.00 video frame)


DOWNLOAD:

hellshare

kód:
http://download.hellshare.sk/americka-krasa-avi/3587127

quickshare.cz
kód:
http://www.quickshare.cz/stahnout-soubor/605260:americka-krasa-avi_1859MB

PASS:no
Návrat hore Goto down
Zobrazit informácie o autorovi http://warnerfilm.forumn.org
 
Americká krása / American Beauty (1999)
Zobraziť predchádzajúcu tému Zobraziť nasledujúcu tému Návrat hore 
Strana 1 z 1

Povolenie tohoto fóra:Nemôžete odpovedať na témy v tomto fóre.
Vsetko zadarmo :: .::Download filmy::. :: .::Filmy s ceskym a slovenskym dabingom::.-
Prejdi na: