Vsetko zadarmo

Vsetko zadarmo
 
DomovFAQHľadaťRegistráciaZoznam užívateľovUžívateľské skupinyPrihlásenie

Share | 
 

 Notoriuos B.I.G.-1970 song

Zobraziť predchádzajúcu tému Zobraziť nasledujúcu tému Goto down 
AutorSpráva
aismen
Mega Uploader
Mega Uploader


Počet príspevkov : 703
Registration date : 16.04.2008

OdoslaťPredmet: Notoriuos B.I.G.-1970 song   St apríl 07, 2010 8:48 pm

Notoriuos B.I.G.-1970 song
:*scrn*:

:*kvalita*:
kód:
Format                          : Windows Media
File size                        : 50.2 MiB
Duration                        : 3mn 42s
Overall bit rate                : 1 895 Kbps
Maximum Overall bit rate        : 264 Kbps
Movie name                      : Biggie Smalls 1970 Somethin' Original
Encoded date                    : UTC 1970-01-01 00:00:00.000
Comment                          : http://atube-catcher.dsnetwb.com/

Video
ID                              : 1
Format                          : WMV1
Codec ID                        : WMV1
Codec ID/Info                    : Windows Media Video 7
Description of the codec        : wmv1
Duration                        : 3mn 42s
Bit rate                        : 1 747 Kbps
Width                            : 1 280 pixels
Height                          : 720 pixels
Display aspect ratio            : 16:9
Frame rate                      : 29.970 fps
Resolution                      : 8 bits
Bits/(Pixel*Frame)              : 0.063
Stream size                      : 46.3 MiB (92%)

Audio
ID                              : 2
Format                          : WMA
Format version                  : Version 2
Codec ID                        : 161
Codec ID/Info                    : Windows Media Audio
Description of the codec        : Windows Media Audio V8
Duration                        : 3mn 42s
Bit rate                        : 64.0 Kbps
Channel(s)                      : 2 channels
Sampling rate                    : 44.1 KHz
Resolution                      : 16 bits
Stream size                      : 1.70 MiB (3%)

:*down*:
kód:
http://czshare.com/1249444/0B9z/Notoriuos_B.I.G._1970_song.rar
:*pass*:
no pass
Návrat hore Goto down
Zobrazit informácie o autorovi http://warnerfilm.forumn.org
 
Notoriuos B.I.G.-1970 song
Zobraziť predchádzajúcu tému Zobraziť nasledujúcu tému Návrat hore 
Strana 1 z 1

Povolenie tohoto fóra:Nemôžete odpovedať na témy v tomto fóre.
Vsetko zadarmo :: .::Download videoklipov::. :: .::Hudobne klipi::.-
Prejdi na: