Vsetko zadarmo

Vsetko zadarmo
 
DomovFAQHľadaťRegistráciaZoznam užívateľovUžívateľské skupinyPrihlásenie

Share | 
 

 Ninja Assassin /Ninja Assassin (2009)

Zobraziť predchádzajúcu tému Zobraziť nasledujúcu tému Goto down 
AutorSpráva
aismen
Mega Uploader
Mega Uploader


Počet príspevkov : 703
Registration date : 16.04.2008

OdoslaťPredmet: Ninja Assassin /Ninja Assassin (2009)   So apríl 03, 2010 5:56 am

Ninja Assassin
Ninja Assassin


Akční
USA / Německo, 2009, 99 min

Režie: James McTeigue
Hrají: Naomie Harris, Sung Kang, Rain , Rick Yune, Ben Miles, Shô Kosugi
:*csfd*:
http://www.csfd.cz/film/239019-ninja-assassin/



kód:
Format                          : AVI
Format/Info                      : Audio Video Interleave
File size                        : 1.57 GiB
Duration                        : 1h 38mn
Overall bit rate                : 2 279 Kbps
Writing application              : VirtualDubMod 1.5.10.2 (build 2540/release)
Writing library                  : VirtualDubMod build 2540/release

Video
ID                              : 0
Format                          : MPEG-4 Visual
Format profile                  : Advanced Simple@L5
Format settings, BVOP            : Yes
Format settings, QPel            : No
Format settings, GMC            : No warppoints
Format settings, Matrix          : Default (MPEG)
Codec ID                        : XVID
Codec ID/Hint                    : XviD
Duration                        : 1h 38mn
Bit rate                        : 1 630 Kbps
Width                            : 720 pixels
Height                          : 304 pixels
Display aspect ratio            : 2.35:1
Frame rate                      : 23.976 fps
Resolution                      : 8 bits
Colorimetry                      : 4:2:0
Scan type                        : Progressive
Bits/(Pixel*Frame)              : 0.311
Stream size                      : 1.12 GiB (72%)
Writing library                  : XviD 1.2.1 (UTC 2008-12-04)

Audio
ID                              : 1
Format                          : AC-3
Format/Info                      : Audio Coding 3
Codec ID                        : 2000
Duration                        : 1h 38mn
Bit rate mode                    : Constant
Bit rate                        : 640 Kbps
Channel(s)                      : 6 channels
Channel positions                : Front: L C R, Surround: L R, LFE
Sampling rate                    : 48.0 KHz
Stream size                      : 452 MiB (28%)
Alignment                        : Split accross interleaves
Interleave, duration            : 42 ms (1.00 video frame)
Interleave, preload duration    : 500 ms



OBSAH:
Hlavním hrdinou filmu je Raizo (Déšť), jeden z nejsmrtelnějších nájemných vrahů na světě. Klanem Ozunu, tajnou společností, jejíž existence je považována za mýtus, je z dítěte z ulice přeměněn na trénovaného zabijáka. Když je však jeho přítel klanem nemilosrdně popraven, Raizo uteče, aby se v ústraní připravil na vykonání pomsty.
:*scrn*:

DOWNLOAD:
kód:
http://www.upnito.sk/subor/327eccc12b508411fadeaddfb92adec9.html
http://www.upnito.sk/subor/8a9d7db0814cb658720cbc29c99a89be.html
http://www.upnito.sk/subor/b96138fabc3aa400b74b06f8265b38c3.html

PASS:
no pass
Návrat hore Goto down
Zobrazit informácie o autorovi http://warnerfilm.forumn.org
 
Ninja Assassin /Ninja Assassin (2009)
Zobraziť predchádzajúcu tému Zobraziť nasledujúcu tému Návrat hore 
Strana 1 z 1

Povolenie tohoto fóra:Nemôžete odpovedať na témy v tomto fóre.
Vsetko zadarmo :: .::Download filmy::. :: .::Filmy s ceskym a slovenskym dabingom::.-
Prejdi na: